[ Сегодня идет свободное скачивание без начисления Download ]


Статистика раздачи
Нет
 
   
 
Top  
 
 
-Молчание Ветчины / Silence of the Hams (1994) DVDRip- Русское название: Молчание Ветчины
Оригинальное название: Silence of the Hams
Год выпуска: 1994
Жанр: Комедия, Ужасы, Пародия
Продолжительность: 01:17:57
Перевод: Многоголосый закадровый
Субтитры: Нет
Описание фильма:
Фильм - Пародия на "Молчание ягнят", "Основной инстинкт", "Голый пистолет"
Молодому агенту ФБР Джо Ди Фостеру поручено работать над делом убийцы Психо, жертвами которого стали более 120 человек.
.

Режиссер: Эцио Греджо / Ezio Greggio
Актеры:
Эцио Греджо, Дом Де Луиз, Билли Зэйн, Йоанна Пакула, Шарлин Тилтон, Мартин Бэлсом, Стюарт Пэнкин, Джон Эстин, Филлис Диллер, Бабба Смит, Лэрри Сторч, Шелли Уинтерс

Видеокодек: MPEG-4 AVC/H.264
Битрейт видео: ~2000 Kbps
Размер кадра: 720x544
Качество видео: DVDRip
Аудиокодек: AC3 2.0
Битрейт аудио: 256 Kbps

Media Info

General
Unique ID : 227793107427052183841589729572977715064 (0xAB5F5B4ED922A9D0873A947D86C52778)
Complete name : Молчание ветчины.mkv
Format : Matroska
Format version : Version 4 / Version 2
File size : 1.24 GiB
Duration : 1h 17mn
Overall bit rate : 2 270 Kbps
Movie name : Молчание ветчины (rip by smithland)
Encoded date : UTC 2013-02-06 13:35:36
Writing application : mkvmerge v6.0.0 ('Coming Up For Air')
Writing library : libebml v1.3.0 + libmatroska v1.4.0
Attachment : Yes
Video
ID : 1
Format : AVC
Format/Info : Advanced Video Codec
Format profile : High@L4.0
Format settings, CABAC : Yes
Format settings, ReFrames : 10 frames
Codec ID : V_MPEG4/ISO/AVC
Duration : 1h 17mn
Bit rate : 2 000 Kbps
Width : 720 pixels
Height : 544 pixels
Display aspect ratio : 4:3
Frame rate mode : Constant
Frame rate : 25.000 fps
Color space : YUV
Chroma subsampling : 4:2:0
Bit depth : 8 bits
Scan type : Progressive
Bits/(Pixel*Frame) : 0.204
Stream size : 1.07 GiB (87%)
Writing library : x264 core 129 r2230
Encoding settings : cabac=1 / ref=10 / deblock=1:-2:0 / analyse=0x3:0x133 / me=esa / subme=11 / psy=1 / psy_rd=1.40:0.45 / mixed_ref=0 / me_range=24 / chroma_me=1 / trellis=2 / 8x8dct=1 / cqm=0 / deadzone=21,11 / fast_pskip=1 / chroma_qp_offset=-4 / threads=12 / lookahead_threads=2 / sliced_threads=0 / nr=0 / decimate=1 / interlaced=0 / bluray_compat=0 / constrained_intra=0 / bframes=6 / b_pyramid=2 / b_adapt=1 / b_bias=0 / direct=3 / weightb=1 / open_gop=0 / weightp=2 / keyint=250 / keyint_min=25 / scenecut=80 / intra_refresh=0 / rc_lookahead=40 / rc=abr / mbtree=1 / bitrate=2000 / ratetol=1.0 / qcomp=0.60 / qpmin=10 / qpmax=69 / qpstep=4 / vbv_maxrate=20000 / vbv_bufsize=20000 / nal_hrd=none / ip_ratio=1.40 / aq=1:1.00
Language : Russian
Default : Yes
Forced : Yes
Audio
ID : 2
Format : AC-3
Format/Info : Audio Coding 3
Mode extension : CM (complete main)
Format settings, Endianness : Big
Codec ID : A_AC3
Duration : 1h 17mn
Bit rate mode : Constant
Bit rate : 256 Kbps
Channel(s) : 2 channels
Channel positions : Front: L R
Sampling rate : 48.0 KHz
Bit depth : 16 bits
Compression mode : Lossy
Delay relative to video : -5ms
Stream size : 143 MiB (11%)
Title : MVO
Language : Russian
Default : Yes
Forced : Yes
Menu
00:00:00.000 : :?? 01
00:05:00.000 : :?? 02
00:10:00.000 : :?? 03
00:15:00.000 : :?? 04
00:20:00.000 : :?? 05
00:25:00.000 : :?? 06
00:30:00.000 : :?? 07
00:35:00.000 : :?? 08
00:40:00.000 : :?? 09
00:45:00.000 : :?? 10
00:50:00.000 : :?? 11
00:55:00.000 : :?? 12
01:00:00.000 : :?? 13
01:05:00.000 : :?? 14
01:10:00.000 : :?? 15
01:15:00.000 : :?? 16
Скриншоты:


Время раздачи: 12:00 - 22:00 МСК

[Цитировать]



Показать сообщения:    

Текущее время: 02-Дек 22:54

Часовой пояс: UTC + 3


Вы не можете начинать темы
Вы не можете отвечать на сообщения
Вы не можете редактировать свои сообщения
Вы не можете удалять свои сообщения
Вы не можете голосовать в опросах
Вы не можете прикреплять файлы к сообщениям
Вы не можете скачивать файлы

!ВНИМАНИЕ!
Сайт не предоставляет электронные версии произведений, а занимается лишь коллекционированием и каталогизацией ссылок, присылаемых и публикуемых на форуме нашими читателями. Если вы являетесь правообладателем какого-либо представленного материала и не желаете, чтобы ссылка на него находилась в нашем каталоге, свяжитесь с нами, и мы незамедлительно удалим ее. Файлы для обмена на трекере предоставлены пользователями сайта, и администрация не несет ответственности за их содержание. Просьба не заливать файлы, защищенные авторскими правами, а также файлы нелегального содержания!