[ Сегодня идет свободное скачивание без начисления Download ]


Статистика раздачи
Нет
 
   
 
Top  
 
 
-Липучка / Flypaper (2011) BDRip- Русское название: Липучка
Оригинальное название: Flypaper
Год выпуска: 2011
Жанр: Комедия, Криминал, Детектив
Описание фильма:
Перед самым закрытием в банк врывается две группы грабителей. Посетители и работники банка оказываются между двух огней. Один из посетителей старается примирить представителей двух криминальных групп - ведь это единственный шанс выжить для тех кто оказался в банке, а для него шанс произвести впечатление на девушку-кассира, в которую он влюбился с первого взгляда. Постепенно наш герой понимает, что похоже, все кроме него оказались в этом банке в момент ограбления не случайно...
Режиссер: Роб Минкофф / Rob Minkoff
Актеры: Патрик Демпси (Tripp), Эшли Джадд (Kaitlin), Тим Блейк Нельсон (Peanut Butter), Мехи Файфер (Darrien), Мэтт Райан (Gates), Джефри Тэмбор (Gordon Blythe), Джон Вентимилья (Weinstein), Прюитт Тэйлор Винс (Jelly), Октавия Спенсер (Madge Wiggins), Кертис Армстронг, Моника Акоста (Bank Customer), Бо Брассо (E.M.T.)
Продолжительность: 01:27:14
Перевод: Авторский (одноголосый, закадровый) Гаврилов, Карповский
Оригинальный аудиопоток: английский

Торрент перезалит! Добавлена дорожа с переводом Гаврилова. Источник/Качество: BDRip
Контейнер: AVI
Видео: 720x304 (2.37:1), 23.976 fps, XviD MPEG-4 ~1136 kbps avg, 0.22 bit/pixel
Аудио#1: 48 kHz, AC3 Dolby Digital, 3/2 (L,C,R,l,r) + LFE ch, ~448 kbps - Гаврилов
Аудио#1: 48 kHz, AC3 Dolby Digital, 3/2 (L,C,R,l,r) + LFE ch, ~448 kbps - Карповский
Аудио#3: 48 kHz, AC3 Dolby Digital, 3/2 (L,C,R,l,r) + LFE ch, ~448 kbps - Английская Спасибо Bloodymetall за работу с голосом.
Перевод у А.Ю.Гаврилова и А.С.Карповского осуществлен в рамках сайта следующими благородными донами:

За перевод у Карповского


1. SavineX
2. Guyver
3. Slimka
4. Dr. Destructo
5. feldeger
6. zetrob
7. zeleniydzhan
8. Wolf_Larsen
9. Kampfer161
10. ZeDOK
11. mihey10
12. vadamk
13. fly32
14. _shurik_
15. Джосс
-
1. Kampfer161
2. zetrob
3. Guyver
4. audiolubitel
5. Pain_70
6. feldeger
7. rocky4
8. Джосс
9. therox
10. spacenoise
11. fly32
12. ZeDOK
13. gemini
14. slimka
15. chef&chef

Media Info

Общее
Полное имя : D:\Мои документы\Кинофильмы\Кино\Мои раздачи (незаболваненные)\Flypaper (Gavrilov, Karpovskiy, Eng) (BDRip) A.P..avi
Формат : AVI
Формат/Информация : Audio Video Interleave
Размер файла : 1,52 Гбайт
Продолжительность : 1 ч. 27 м.
Общий поток : 2501 Кбит/сек
Программа кодирования : VirtualDubMod 1.5.10.3 | www.virtualdub-fr.org || (build 2550/release)
Библиотека кодирования : VirtualDubMod build 2550/release
Видео
Идентификатор : 0
Формат : MPEG-4 Visual
Профиль формата : Advanced Simple@L5
Параметр BVOP формата : 1
Параметр QPel формата : Нет
Параметр GMC формата : Без точки перехода
Параметр матрицы формата : Выборочная
Идентификатор кодека : XVID
Идентификатор кодека/Подсказка : XviD
Продолжительность : 1 ч. 27 м.
Битрейт : 1138 Кбит/сек
Ширина : 720 пикселей
Высота : 304 пикселя
Соотношение сторон : 2,35:1
Частота кадров : 23,976 кадра/сек
Цветовое пространство : YUV
Субдискретизация насыщенности : 4:2:0
Битовая глубина : 8 бит
Тип развёртки : Прогрессивная
Метод сжатия : С потерями
Бит/(Пиксели*Кадры) : 0.217
Размер потока : 710 Мбайт (46%)
Библиотека кодирования : XviD 73
Аудио #1
Идентификатор : 1
Формат : AC-3
Формат/Информация : Audio Coding 3
Расширение режима : CM (complete main)
Параметр Endianness формата : Big
Идентификатор кодека : 2000
Продолжительность : 1 ч. 27 м.
Вид битрейта : Постоянный
Битрейт : 448 Кбит/сек
Каналы : 6 каналов
Расположение каналов : Front: L C R, Side: L R, LFE
Частота : 48,0 КГц
Битовая глубина : 16 бит
Метод сжатия : С потерями
Размер потока : 280 Мбайт (18%)
Выравнивание : Разделение по промежуткам
Продолжительность промежутка : 42 мс. (1,00 видеокадр)
Время предзагрузки промежутка : 500 мс.
Аудио #2
Идентификатор : 2
Формат : AC-3
Формат/Информация : Audio Coding 3
Расширение режима : CM (complete main)
Параметр Endianness формата : Big
Идентификатор кодека : 2000
Продолжительность : 1 ч. 27 м.
Вид битрейта : Постоянный
Битрейт : 448 Кбит/сек
Каналы : 6 каналов
Расположение каналов : Front: L C R, Side: L R, LFE
Частота : 48,0 КГц
Битовая глубина : 16 бит
Метод сжатия : С потерями
Размер потока : 280 Мбайт (18%)
Выравнивание : Разделение по промежуткам
Продолжительность промежутка : 42 мс. (1,00 видеокадр)
Время предзагрузки промежутка : 500 мс.
Аудио #3
Идентификатор : 3
Формат : AC-3
Формат/Информация : Audio Coding 3
Расширение режима : CM (complete main)
Параметр Endianness формата : Big
Идентификатор кодека : 2000
Продолжительность : 1 ч. 27 м.
Вид битрейта : Постоянный
Битрейт : 448 Кбит/сек
Каналы : 6 каналов
Расположение каналов : Front: L C R, Side: L R, LFE
Частота : 48,0 КГц
Битовая глубина : 16 бит
Метод сжатия : С потерями
Размер потока : 280 Мбайт (18%)
Выравнивание : Разделение по промежуткам
Продолжительность промежутка : 42 мс. (1,00 видеокадр)
Время предзагрузки промежутка : 500 мс.


Время раздачи: 24 / 7 Почти всегда

[Цитировать]



Показать сообщения:    

Текущее время: 11-Дек 09:02

Часовой пояс: UTC + 3


Вы не можете начинать темы
Вы не можете отвечать на сообщения
Вы не можете редактировать свои сообщения
Вы не можете удалять свои сообщения
Вы не можете голосовать в опросах
Вы не можете прикреплять файлы к сообщениям
Вы не можете скачивать файлы

!ВНИМАНИЕ!
Сайт не предоставляет электронные версии произведений, а занимается лишь коллекционированием и каталогизацией ссылок, присылаемых и публикуемых на форуме нашими читателями. Если вы являетесь правообладателем какого-либо представленного материала и не желаете, чтобы ссылка на него находилась в нашем каталоге, свяжитесь с нами, и мы незамедлительно удалим ее. Файлы для обмена на трекере предоставлены пользователями сайта, и администрация не несет ответственности за их содержание. Просьба не заливать файлы, защищенные авторскими правами, а также файлы нелегального содержания!