[ Сегодня идет свободное скачивание без начисления Download ]


Статистика раздачи
Нет
 
   
 
Top  
 
 
-Хороший денек для свадьбы / Cheerful Weather for the Wedding (2012) BDRip [H.264]-- Русское название: Хороший денек для свадьбы
Оригинальное название: Cheerful Weather for the Wedding
Год выпуска: 2012
Страна: Великобритания | Cheerful Weather, Goldcrest Pictures, Yellow Knife
Жанр: Драма, Комедия--Описание фильма:
Англия, 1932 год. В утро своей свадьбы Долли в компании бутылки рома предается воспоминаниям о незабываемой прошлогодней любовной интриге. Джозеф, о котором она грезит, также объят приятными воспоминаниями об их романе. Но все дело в том, что Долли собирается замуж за совершенно другого человека. Подготовка к свадьбе уже в самом разгаре. Не хватает только появления на ней бывшего возлюбленного…--Режиссер: Дональд Райс
Актеры: Фелисити Джонс, Элизабет МакГоверн, МакКензи Крук, Люк Тредэвэй, Элли Кендрик, Зои Таппер, Джулиан Уэдэм, Олли Александр, Барбара Флинн, Фенелла Вулгар ...
Продолжительность: 01:32:37
Перевод: Многоголосый закадровый
Релиз группа: ExKinoRay

Дата мировой премьеры: 20 апреля 2012
Дата выхода DVD релиза: 29 ноября 2012, «Вольга»-Видеокодек: MPEG-4 AVC/H.264
Битрейт видео: ~2619 Кбит/сек
Размер кадра: 1024*436
Качество видео: BDRip
Аудиокодек: AC3 5.1
Аудио #1: 448 Кбит/сек, 6 каналов, русский
Аудио #2: 448 Кбит/сек, 6 каналов, английский
Главы: сохранены

MediaInfo:

Общее
Уникальный идентификатор                 : 189982814600487697839011614607008599220 (0x8EED5BF1A283B4208122B6C1AE500CB4)
Полное имя                               : :\\Veselyi.denek.dlja.svadby.2012.BDRip.mkv
Формат                                   : Matroska
Версия формата                           : Version 2
Размер файла                             : 2,27 Гбайт
Продолжительность                        : 1 ч. 32 м.
Общий поток                              : 3513 Кбит/сек
Название фильма                          : Horoshij.denek.dlja.svadby.2012.x264.BDRip.(AVC).ExKinoRay
Дата кодирования                         : UTC 2013-02-05 14:09:33
Программа кодирования                    : mkvmerge v4.0.0 ('The Stars were mine') сборка от Jun  6 2010 16:18:42
Библиотека кодирования                   : libebml v1.0.0 + libmatroska v1.0.0
Видео
Идентификатор                            : 1
Формат                                   : AVC
Формат/Информация                        : Advanced Video Codec
Профиль формата                          : [url=mailto:High@L4.1]High@L4.1[/url]
Параметр CABAC формата                   : Да
Параметр ReFrames формата                : 8 кадров
Идентификатор кодека                     : V_MPEG4/ISO/AVC
Продолжительность                        : 1 ч. 32 м.
Битрейт                                  : 2619 Кбит/сек
Ширина                                   : 1024 пикселя
Высота                                   : 436 пикселей
Соотношение сторон                       : 2,35:1
Частота кадров                           : 23,976 кадра/сек
Цветовое пространство                    : YUV
Субдискретизация насыщенности            : 4:2:0
Битовая глубина                          : 8 бит
Тип развёртки                            : Прогрессивная
Бит/(Пиксели*Кадры)                      : 0.245
Размер потока                            : 1,65 Гбайт (73%)
Заголовок                                : Rip by Enigma-Vladislav71
Библиотека кодирования                   : x264 core 129 r2230 1cffe9f
Настройки программы                      : cabac=1 / ref=8 / deblock=1:-2:-2 / analyse=0x3:0x133 / me=umh / subme=11 / psy=1 / psy_rd=1.00:0.00 / mixed_ref=1 / me_range=48 / chroma_me=1 / trellis=2 / 8x8dct=1 / cqm=0 / deadzone=21,11 / fast_pskip=0 / chroma_qp_offset=-2 / threads=3 / lookahead_threads=1 / sliced_threads=0 / nr=0 / decimate=0 / interlaced=0 / bluray_compat=0 / constrained_intra=0 / bframes=8 / b_pyramid=2 / b_adapt=2 / b_bias=0 / direct=3 / weightb=1 / open_gop=0 / weightp=2 / keyint=240 / keyint_min=23 / scenecut=40 / intra_refresh=0 / rc_lookahead=40 / rc=2pass / mbtree=1 / bitrate=2619 / ratetol=1.0 / qcomp=0.60 / qpmin=10 / qpmax=51 / qpstep=4 / cplxblur=20.0 / qblur=0.5 / ip_ratio=1.40 / aq=2:1.00
Язык                                     : English
Default                                  : Нет
Forced                                   : Нет
Аудио #1
Идентификатор                            : 2
Формат                                   : AC-3
Формат/Информация                        : Audio Coding 3
Расширение режима                        : CM (complete main)
Параметр Endianness формата              : Big
Идентификатор кодека                     : A_AC3
Продолжительность                        : 1 ч. 32 м.
Вид битрейта                             : Постоянный
Битрейт                                  : 448 Кбит/сек
Каналы                                   : 6 каналов
Расположение каналов                     : Front: L C R, Side: L R, LFE
Частота                                  : 48,0 КГц
Битовая глубина                          : 16 бит
Метод сжатия                             : С потерями
Размер потока                            : 297 Мбайт (13%)
Язык                                     : Russian
Default                                  : Да
Forced                                   : Нет
Аудио #2
Идентификатор                            : 3
Формат                                   : AC-3
Формат/Информация                        : Audio Coding 3
Расширение режима                        : CM (complete main)
Параметр Endianness формата              : Big
Идентификатор кодека                     : A_AC3
Продолжительность                        : 1 ч. 32 м.
Вид битрейта                             : Постоянный
Битрейт                                  : 448 Кбит/сек
Каналы                                   : 6 каналов
Расположение каналов                     : Front: L C R, Side: L R, LFE
Частота                                  : 48,0 КГц
Битовая глубина                          : 16 бит
Метод сжатия                             : С потерями
Размер потока                            : 297 Мбайт (13%)
Язык                                     : English
Default                                  : Нет
Forced                                   : Нет
Меню
00:00:00.000                             : en:Chapter 01
00:09:02.958                             : en:Chapter 02
00:16:54.430                             : en:Chapter 03
00:26:33.967                             : en:Chapter 04
00:35:42.056                             : en:Chapter 05
00:43:10.170                             : en:Chapter 06
00:58:36.888                             : en:Chapter 07
01:07:30.171                             : en:Chapter 08
01:12:27.509                             : en:Chapter 09
01:21:03.108                             : en:Chapter 10
Скриншоты: Время раздачи: 24/7 до первых 3-х скачавших, далее по возможности

[Цитировать]



Показать сообщения:    

Текущее время: 08-Дек 17:13

Часовой пояс: UTC + 3


Вы не можете начинать темы
Вы не можете отвечать на сообщения
Вы не можете редактировать свои сообщения
Вы не можете удалять свои сообщения
Вы не можете голосовать в опросах
Вы не можете прикреплять файлы к сообщениям
Вы не можете скачивать файлы

!ВНИМАНИЕ!
Сайт не предоставляет электронные версии произведений, а занимается лишь коллекционированием и каталогизацией ссылок, присылаемых и публикуемых на форуме нашими читателями. Если вы являетесь правообладателем какого-либо представленного материала и не желаете, чтобы ссылка на него находилась в нашем каталоге, свяжитесь с нами, и мы незамедлительно удалим ее. Файлы для обмена на трекере предоставлены пользователями сайта, и администрация не несет ответственности за их содержание. Просьба не заливать файлы, защищенные авторскими правами, а также файлы нелегального содержания!