[ Сегодня идет свободное скачивание без начисления Download ]


Статистика раздачи
Нет
 
   
 
Top  
 
 
-Три амигос! / ?Three Amigos! (1986) BDRip Русское название: Три амигос!
Оригинальное название: ?Three Amigos!
Год выпуска: 1986
Жанр: Комедия, Приключения, Вестерн
Описание фильма: Печально известный разбойник Эль Гуапо терроризироет мексиканскую деревушку. Некая отчаявшаяся сеньорита призывает на помощь единственных известных ей героев — легендарных «Три амиго». Известные всем как бесстрашные защитники свободы, эти храбрые ковбои, послухам, должны быть лучшими на западе.
Однако под огромными сомбреро скрываются всего лишь киногерои, а драки, в которых им довелось поучаствовать, были всего лишь трюками на съемочной площадке. Приняв за приглашение просьбу об очередном выступлении передпоклонниками, наши неуклюжие актеры, нацепив кое — как амуницию, отправляются от границы на юг.
Но подвергнувшись нападению головорезов Эль Гуапо, они неожиданно для себя понимают, что бандиты, а в особенности их пули — чересчур реалистичны…
Режиссер: Джон Лэндис
Актеры: Чеви Чейз, Стив Мартин, Мартин Шорт, Патрис Мартинез, Филип Гордон, Майкл Рен, Фред Аспарагус, Джин Хартлайн, Уильям Б. Каплан, Софи Ламур
Продолжительность: 01:42:56
Перевод: Многоголосый закадровый (НТВ)

Дата мировой премьеры: 10 декабря 1986
Видеокодек: Xvid
Битрейт видео: ~1827 kbps
Размер кадра: 720x384
Качество видео: BDRip
Аудиокодек: AC3 2.0
Битрейт аудио: 192.00 kbps
&

MediaInfo

Общее
Полное имя : F:\Роздачи\?Three Amigos!.1986.BDRip.avi
Формат : AVI
Формат/Информация : Audio Video Interleave
Профиль формата : OpenDML
Настройки формата : rec
Размер файла : 1,45 Гбайт
Продолжительность : 1 ч. 42 м.
Общий поток : 2024 Кбит/сек
Название фильма : Три амигос! / ?Three Amigos! (1986) BDRip rip by Rulya74
Программа кодирования : AVI-Mux GUI 1.17.8.3, Feb 16 201019:42:50
Видео
Идентификатор : 0
Формат : MPEG-4 Visual
Профиль формата : Advanced Simple@L5
Параметр BVOP формата : 1
Параметр QPel формата : Нет
Параметр GMC формата : Без точки перехода
Параметр матрицы формата : Выборочная
Режим смешивания : Сжатый битовый поток
Идентификатор кодека : XVID
Идентификатор кодека/Подсказка : XviD
Продолжительность : 1 ч. 42 м.
Битрейт : 1827 Кбит/сек
Ширина : 720 пикселей
Высота : 384 пикселя
Соотношение сторон : 1,85:1
Частота кадров : 23,976 кадра/сек
Цветовое пространство : YUV
Субдискретизация насыщенности : 4:2:0
Битовая глубина : 8 бит
Тип развёртки : Прогрессивная
Метод сжатия : С потерями
Бит/(Пиксели*Кадры) : 0.276
Размер потока : 1,31 Гбайт (90%)
Библиотека кодирования : XviD 65
Аудио
Идентификатор : 1
Формат : AC-3
Формат/Информация : Audio Coding 3
Расширение режима : CM (complete main)
Параметр Endianness формата : Big
Идентификатор кодека : 2000
Продолжительность : 1 ч. 42 м.
Вид битрейта : Постоянный
Битрейт : 192 Кбит/сек
Каналы : 2 канала
Расположение каналов : Front: L R
Частота : 48,0 КГц
Битовая глубина : 16 бит
Метод сжатия : С потерями
Размер потока : 141 Мбайт (9%)
Выравнивание : Соединение по промежуткам
Продолжительность промежутка : 64 мс. (1,53 видеокадра)
Время предзагрузки промежутка : 192 мс.
Заголовок : Многоголосый закадровый (НТВ)
Скриншоты:

Время раздачи: с 8:00 до 23:00

[Цитировать]



Показать сообщения:    

Текущее время: 10-Дек 23:31

Часовой пояс: UTC + 3


Вы не можете начинать темы
Вы не можете отвечать на сообщения
Вы не можете редактировать свои сообщения
Вы не можете удалять свои сообщения
Вы не можете голосовать в опросах
Вы не можете прикреплять файлы к сообщениям
Вы не можете скачивать файлы

!ВНИМАНИЕ!
Сайт не предоставляет электронные версии произведений, а занимается лишь коллекционированием и каталогизацией ссылок, присылаемых и публикуемых на форуме нашими читателями. Если вы являетесь правообладателем какого-либо представленного материала и не желаете, чтобы ссылка на него находилась в нашем каталоге, свяжитесь с нами, и мы незамедлительно удалим ее. Файлы для обмена на трекере предоставлены пользователями сайта, и администрация не несет ответственности за их содержание. Просьба не заливать файлы, защищенные авторскими правами, а также файлы нелегального содержания!