[ Сегодня идет свободное скачивание без начисления Download ]


Статистика раздачи
Нет
 
   
 
Top  
 
 
-Человек-Схема / Circuitry Man (1990) DVDRip-
Русское название: Человек-Схема
Оригинальное название: Circuitry Man
Год выпуска: 1990
Жанр: Фантастика, Боевик
2 фильм тут - http://nnm-club.ru/forum/viewtopic.php?t=614518
Описание фильма:
Отравленный воздух, подземные города и животные-мутанты составляют мир фильма. Мир ближайшего будущего, в котором компьютерные программы становятся наркотиком по выбору молодого поколения программируемых людей, а война ведется в электронных системах противников. Человек-схема преследует прекрасную телохранительницу Лори и Дэннера, андроида, запрограммированного на удовольствие, когда они пытаются контрабандой протащить компьютерные наркотики, вызывающие галлюцинации. Они предпринимают полный приключений поход через всю страну из Лос-Анджелеса в Нью-Йорк, спасаясь от садиста Плагхеда, человека-прибора, который хочет "подключиться" к мозгу Лори.

Режиссер: Стивен Лови
Актеры: Джим Метцлер, Дэна Уилер-Николсон, Лу Леонард, Вернон Уэллс
Продолжительность: 01:32:27
Перевод: Многоголосый закадровый
Автор перевода: Телеканал ТВ3

Дата мировой премьеры: 25.05.1990
Видеокодек: Xvid
Битрейт видео: ~926Kbps
Размер кадра: 608x336
Качество видео: DVDRip
Аудиокодек: MP3,2ch
Битрейт аудио: ~192.00 kbps

MI:

Общее
Полное имя : D:\Archyv\Films\Человек-Схема.avi
Формат : AVI
Формат/Информация : Audio Video Interleave
Размер файла : 705 Мбайт
Продолжительность : 1 ч. 32 м.
Общий поток : 1066 Кбит/сек
Название фильма : Андроид / Человек-схема / Circuitry Man (1990)
Программа кодирования : VirtualDubMod 1.5.10.2 (build 2540/release)
Библиотека кодирования : VirtualDubMod build 2540/release
Видео
Идентификатор : 0
Формат : MPEG-4 Visual
Профиль формата : Advanced Simple@L5
Параметр BVOP формата : 2
Параметр QPel формата : Да
Параметр GMC формата : Без точки перехода
Параметр матрицы формата : Default (H.263)
Режим смешивания : Сжатый битовый поток
Идентификатор кодека : XVID
Идентификатор кодека/Подсказка : XviD
Продолжительность : 1 ч. 32 м.
Битрейт : 926 Кбит/сек
Ширина : 608 пикселей
Высота : 336 пикселей
Соотношение сторон : 16:9
Частота кадров : 29,970 кадров/сек
Цветовое пространство : YUV
Субдискретизация насыщенности : 4:2:0
Битовая глубина : 8 бит
Тип развёртки : Прогрессивная
Метод сжатия : С потерями
Бит/(Пиксели*Кадры) : 0.151
Размер потока : 613 Мбайт (87%)
Библиотека кодирования : XviD 1.0.0 RC4 (Hola) (UTC 2004-04-05)
Аудио
Идентификатор : 1
Формат : MPEG Audio
Версия формата : Version 1
Профиль формата : Layer 3
Режим : Joint stereo
Расширение режима : MS Stereo
Идентификатор кодека : 55
Идентификатор кодека/Подсказка : MP3
Продолжительность : 1 ч. 32 м.
Вид битрейта : Постоянный
Битрейт : 128 Кбит/сек
Каналы : 2 канала
Частота : 48,0 КГц
Метод сжатия : С потерями
Размер потока : 84,6 Мбайт (12%)
Выравнивание : Соединение по промежуткам
Продолжительность промежутка : 33 мс. (1,00 видеокадр)
Время предзагрузки промежутка : 504 мс.
Заголовок : Профессиональный (многоголосый, закадровый) ТВ-3
Скриншоты:

Время раздачи: с 6:00 до 22:00 (GMT +2)

[Цитировать]



Показать сообщения:    

Текущее время: 09-Дек 16:39

Часовой пояс: UTC + 3


Вы не можете начинать темы
Вы не можете отвечать на сообщения
Вы не можете редактировать свои сообщения
Вы не можете удалять свои сообщения
Вы не можете голосовать в опросах
Вы не можете прикреплять файлы к сообщениям
Вы не можете скачивать файлы

!ВНИМАНИЕ!
Сайт не предоставляет электронные версии произведений, а занимается лишь коллекционированием и каталогизацией ссылок, присылаемых и публикуемых на форуме нашими читателями. Если вы являетесь правообладателем какого-либо представленного материала и не желаете, чтобы ссылка на него находилась в нашем каталоге, свяжитесь с нами, и мы незамедлительно удалим ее. Файлы для обмена на трекере предоставлены пользователями сайта, и администрация не несет ответственности за их содержание. Просьба не заливать файлы, защищенные авторскими правами, а также файлы нелегального содержания!