[ Сегодня идет свободное скачивание без начисления Download ]


Статистика раздачи
Нет
 
   
 
Top  
 
 
[sh]Пятое измерение / Push[/sh][sh]«One Push can change everything»[/sh]
[sh]Год выпуска[/sh]: 2009
[sh]Страна[/sh]: США , Канада
[sh]Производство[/sh]: Icon Productions, Summit Entertainment
[sh]Жанр[/sh]: Фантастика, боевик
[sh]Режиссер[/sh]: Пол Мак Гиган
[sh]В ролях[/sh]: Крис Эванс, Дакота Фаннинг, Джимон Хунсу, Камилла Белль, Джоэль Гретш, Роберт Тсонос, Брэндон Перлман, Нил Джексон, Колин Форд.
[sh]Перевод[/sh]:Профессиональный (полное дублирование) + оригинал
[sh]Субтитры[/sh]: Rus, eng, ukr
[sh]Описание[/sh]: Ник, американский эмигрант, обладает способностью к телекинезу. Он скрывается в Гонконге от могущественной организации, которая хочет эксплуатировать его дар в своих целях. Вскоре молодой человек встречает свою бывшую возлюбленную и знакомится с девочкой Кэсси, способной предсказывать будущее. Она видит, что только вместе они смогут выжить и нарушить планы зловещей корпорации…
[kp]105397[/kp] [imdb]tt0465580[/imdb]
[sh]Качество[/sh]: BDRip-AVC
[sh]Продолжительность[/sh]: 01:51:20 часа.
[sh]Формат[/sh]: MKV
[sh]Видео кодек[/sh]: H.26x
[sh]Аудио кодек[/sh]: AC3
[sh]Видео[/sh]: 960x408 (2.35:1), 24 fps, AVC, 2846 kbps avg, 0.295 bit/pixel
[sh]Аудио[/sh]: 48 kHz, AC3 Dolby Digital, 3/2 (L,C,R,l,r) + LFE ch, ~448kbps (DUB)
[sh]Аудио #2[/sh]: 48 kHz, AC3 Dolby Digital, 3/2 (L,C,R,l,r) + LFE ch, ~448kbps (ENG)
[sh]Премьера (мир)[/sh]: 29 января 2009, ...
[sh]Премьера (РФ)[/sh]: 18 июня 2009, «West»

Media Info

Общее
Уникальный идентификатор                 : 175083226709517992869891361817425410918 (0x83B7CD8B609BB597855F9CFEBD70FB66)
Полное имя                               : D:\Push 2009 BDRip-AVC.mkv
Формат                                   : Matroska
Версия формата                           : Version 2
Размер файла                             : 2,91 Гбайт
Продолжительность                        : 1 ч. 51 м.
Общий поток                              : 3743 Кбит/сек
Дата кодирования                         : UTC 2011-08-15 20:18:18
Программа кодирования                    : mkvmerge v4.9.1 ('Ich will') сборка от Jul 11 2011 23:53:15
Библиотека кодирования                   : libebml v1.2.1 + libmatroska v1.1.1
Видео
Идентификатор                            : 1
Формат                                   : AVC
Формат/Информация                        : Advanced Video Codec
Профиль формата                          : High@L3.2
Параметр CABAC формата                   : Да
Параметр ReFrames формата                : 12 кадров
Идентификатор кодека                     : V_MPEG4/ISO/AVC
Продолжительность                        : 1 ч. 51 м.
Битрейт                                  : 2846 Кбит/сек
Ширина                                   : 960 пикселей
Высота                                   : 408 пикселей
Соотношение сторон                       : 2,35:1
Частота кадров                           : 24,000 кадра/сек
Цветовое пространство                    : YUV
Субдискретизация насыщенности            : 4:2:0
Битовая глубина                          : 8 бит
Тип развёртки                            : Прогрессивная
Бит/(Пиксели*Кадры)                      : 0.303
Размер потока                            : 2,16 Гбайт (74%)
Заголовок                                : Push 2009 BDRip-AVC x264 Gambit
Библиотека кодирования                   : x264 core 115 r1936 7a9e08d
Настройки программы                      : cabac=1 / ref=12 / deblock=1:-3:-2 / analyse=0x3:0x133 / me=umh / subme=10 / psy=1 / psy_rd=1.15:0.05 / mixed_ref=1 / me_range=48 / chroma_me=1 / trellis=2 / 8x8dct=1 / cqm=0 / deadzone=21,11 / fast_pskip=1 / chroma_qp_offset=-6 / threads=6 / sliced_threads=0 / nr=0 / decimate=1 / interlaced=0 / bluray_compat=0 / constrained_intra=0 / bframes=10 / b_pyramid=2 / b_adapt=2 / b_bias=0 / direct=3 / weightb=1 / open_gop=0 / weightp=2 / keyint=250 / keyint_min=23 / scenecut=40 / intra_refresh=0 / rc=2pass / mbtree=0 / bitrate=2846 / ratetol=1.0 / qcomp=0.65 / qpmin=0 / qpmax=69 / qpstep=4 / cplxblur=20.0 / qblur=0.5 / ip_ratio=1.40 / pb_ratio=1.20 / aq=2:0.80 / zones=153139,160320,q=35
Язык                                     : English
Default                                  : Да
Forced                                   : Нет
Аудио #1
Идентификатор                            : 2
Формат                                   : AC-3
Формат/Информация                        : Audio Coding 3
Расширение режима                        : CM (complete main)
Параметр Endianness формата              : Big
Идентификатор кодека                     : A_AC3
Продолжительность                        : 1 ч. 51 м.
Вид битрейта                             : Постоянный
Битрейт                                  : 448 Кбит/сек
Каналы                                   : 6 каналов
Расположение каналов                     : Front: L C R, Side: L R, LFE
Частота                                  : 48,0 КГц
Битовая глубина                          : 16 бит
Метод сжатия                             : С потерями
Размер потока                            : 357 Мбайт (12%)
Заголовок                                : Dub
Язык                                     : Russian
Default                                  : Да
Forced                                   : Нет
Аудио #2
Идентификатор                            : 3
Формат                                   : AC-3
Формат/Информация                        : Audio Coding 3
Расширение режима                        : CM (complete main)
Параметр Endianness формата              : Big
Идентификатор кодека                     : A_AC3
Продолжительность                        : 1 ч. 51 м.
Вид битрейта                             : Постоянный
Битрейт                                  : 448 Кбит/сек
Каналы                                   : 6 каналов
Расположение каналов                     : Front: L C R, Side: L R, LFE
Частота                                  : 48,0 КГц
Битовая глубина                          : 16 бит
Метод сжатия                             : С потерями
Размер потока                            : 357 Мбайт (12%)
Заголовок                                : Original (Eng)
Язык                                     : English
Default                                  : Нет
Forced                                   : Нет
Текст #1
Идентификатор                            : 4
Формат                                   : UTF-8
Идентификатор кодека                     : S_TEXT/UTF8
Идентификатор кодека/Информация          : UTF-8 Plain Text
Заголовок                                : Rus
Язык                                     : Russian
Default                                  : Нет
Forced                                   : Нет
Текст #2
Идентификатор                            : 5
Формат                                   : UTF-8
Идентификатор кодека                     : S_TEXT/UTF8
Идентификатор кодека/Информация          : UTF-8 Plain Text
Заголовок                                : Eng
Язык                                     : English
Default                                  : Нет
Forced                                   : Нет
Текст #3
Идентификатор                            : 6
Формат                                   : UTF-8
Идентификатор кодека                     : S_TEXT/UTF8
Идентификатор кодека/Информация          : UTF-8 Plain Text
Заголовок                                : Ukr
Язык                                     : Ukrainian
Default                                  : Нет
Forced                                   : Нет

Скриншоты



[Цитировать]



Показать сообщения:    

Текущее время: 08-Дек 03:15

Часовой пояс: UTC + 3


Вы не можете начинать темы
Вы не можете отвечать на сообщения
Вы не можете редактировать свои сообщения
Вы не можете удалять свои сообщения
Вы не можете голосовать в опросах
Вы не можете прикреплять файлы к сообщениям
Вы не можете скачивать файлы

!ВНИМАНИЕ!
Сайт не предоставляет электронные версии произведений, а занимается лишь коллекционированием и каталогизацией ссылок, присылаемых и публикуемых на форуме нашими читателями. Если вы являетесь правообладателем какого-либо представленного материала и не желаете, чтобы ссылка на него находилась в нашем каталоге, свяжитесь с нами, и мы незамедлительно удалим ее. Файлы для обмена на трекере предоставлены пользователями сайта, и администрация не несет ответственности за их содержание. Просьба не заливать файлы, защищенные авторскими правами, а также файлы нелегального содержания!