[ Today is free to download without increasing Download ]

DL-List and Torrent activity
-Перелетные свиньи / When Pigs Have Wings (2011) HDRip- Русское название: Перелетные свиньи
Оригинальное название: When Pigs Have Wings
Год выпуска: 2011
Жанр: Комедия
Страна: Франция, Германия, Бельгия
Описание фильма:
Джафару, рыбаку из сектора Газа, не везет. Он весь в долгах. В его сети попадает лишь мелкая рыбёшка, в то время, как другие рыбаки возвращаются с богатым уловом, а тут однажды в сети к бедному мусульманину попадает целая, живая свинья...
Режиссер: Сильвен Эстибаль / Sylvain Estibal
Актеры: Сэссон Габаи, Байа Белаль, Мириам Текаиа, Гассан Аббас, Халифа Натур, Лотфи Абделли, Ульрих Тукур, Халед Риани, Ури Габэй, Идо Шакед
Продолжительность: 01:38:48
Перевод: Многоголосый закадровый

Дата мировой премьеры: 21 сентября 2011
Дата российской премьеры: 15 ноября 2012, «KinoClub»
Видеокодек: Xvid
Битрейт видео: ~1765 Kb/s
Размер кадра: 720x384
Качество видео: HDRip
Аудиокодек: AC3 2 ср
Битрейт аудио: 192 kb/s
Сэмпл: Ссылка


Format : AVI
Format/Info : Audio Video Interleave
File size : 1.36 GiB
Duration : 1h 38mn
Overall bit rate : 1 967 Kbps
Writing application : VirtualDubMod (build 2540/release)
Writing library : VirtualDubMod build 2540/release
ID : 0
Format : MPEG-4 Visual
Format profile : Advanced Simple@L5
Format settings, BVOP : 2
Format settings, QPel : No
Format settings, GMC : No warppoints
Format settings, Matrix : Custom
Codec ID : XVID
Codec ID/Hint : XviD
Duration : 1h 38mn
Bit rate : 1 765 Kbps
Width : 720 pixels
Height : 384 pixels
Display aspect ratio : 1.85:1
Frame rate : 24.000 fps
Color space : YUV
Chroma subsampling : 4:2:0
Bit depth : 8 bits
Scan type : Progressive
Compression mode : Lossy
Bits/(Pixel*Frame) : 0.266
Stream size : 1.22 GiB (90%)
Writing library : XviD 1.2.1 (UTC 2008-12-04)
ID : 1
Format : AC-3
Format/Info : Audio Coding 3
Mode extension : CM (complete main)
Format settings, Endianness : Big
Codec ID : 2000
Duration : 1h 38mn
Bit rate mode : Constant
Bit rate : 192 Kbps
Channel(s) : 2 channels
Channel positions : Front: L R
Sampling rate : 48.0 KHz
Bit depth : 16 bits
Compression mode : Lossy
Stream size : 136 MiB (10%)
Alignment : Split accross interleaves
Interleave, duration : 42 ms (1.00 video frame)
Interleave, preload duration : 500 ms

Время раздачи: с 10:00 до 24:00


Display posts:    

Current time is: 24-Oct 15:27

All times are UTC + 3

You cannot post new topics in this forum
You cannot reply to topics in this forum
You cannot edit your posts in this forum
You cannot delete your posts in this forum
You cannot vote in polls in this forum
You cannot attach files in this forum
You cannot download files in this forum

The site does not give electronic versions of products, and is engaged only in a collecting and cataloguing of the references sent and published at a forum by our readers. If you are the legal owner of any submitted material and do not wish that the reference to it was in our catalogue, contact us and we shall immediately remove her. Files for an exchange on tracker are given by users of a site, and the administration does not bear the responsibility for their maintenance. The request to not fill in the files protected by copyrights, and also files of the illegal maintenance!