[ Сегодня идет свободное скачивание без начисления Download ]


Статистика раздачи
Нет
 
   
 
Top  
 
 
-Скрытый враг / The Hidden (1987) WEB-DL- Русское название: Скрытый враг
Оригинальное название: The Hidden
Год выпуска: 1987
Жанр: Ужасы, Фантастика, Боевик-Описание фильма:
Отдел по расследованию убийств не спит уже которую ночь: по городу катится волна необычных преступлений. Своеобразие их в том, что все преступники — вполне добропорядочные и законопослушные граждане, в которых будто бы сам черт вселился, заставляя их творить всяческие кошмарные, ненормальные вещи. У детектива Тома Бека, ведущего следствие по этому делу, просто голова кругом идет…
И уж, конечно же, меньше всего ему хочется оказывать всяческое содействие присланному сверху сотруднику ФБР Ллойду Гэллагеру, — человеку со странностями, логику которого понять, кажется, абсолютно невозможно. Но что если и вправду это дело рук инопланетян, вселяющихся в тела землян?
-Режиссер: Джек Шолдер / Jack Sholder
Актеры:
Кайл МакЛахлан, Майкл Нури, Клаудия Кристиан, Клэренс Фелдер, Клу Гулажер, Эд О`Росс, Уильям Бойетт, Ричард Брукс, Ларри Седар, Кэтерин Кэннон и др.

Продолжительность: 1:37:15
Перевод #1: Двуголосый закадровый
Перевод #2: Авторский |Гаврилов|
-Дата мировой премьеры: 20 октября 1987-Видеокодек: MPEG-4 AVC
Битрейт видео: ~3900 kbps
Размер кадра: 1280x700
Качество видео: WEB-DL
Аудиокодек: AC3 2.0
Битрейт аудио #1: 192 kbps |DVO|
Битрейт аудио #2: 224 kbps |Гаврилов|
Сэмпл: Ссылка

MI

Полное имя : O:\The.Hidden.1987.WEB-DL.AVO.Gavrilov.DVO.cw.mkv
Формат : Matroska
Версия формата : Version 2
Размер файла : 2,96 Гбайт
Продолжительность : 1 ч. 37 м.
Общий поток : 4359 Кбит/сек
Название фильма : Скрытый враг / The Hidden
Дата кодирования : UTC 2013-02-04 10:25:05
Программа кодирования : mkvmerge v5.5.0 ('Healer') built on Apr 24 2012 23:47:03
Библиотека кодирования : libebml v1.2.3 + libmatroska v1.3.0
Видео
Идентификатор : 1
Формат : AVC
Формат/Информация : Advanced Video Codec
Профиль формата : [email protected]
Параметр CABAC формата : Нет
Параметр ReFrames формата : 2 кадра
Идентификатор кодека : V_MPEG4/ISO/AVC
Продолжительность : 1 ч. 37 м.
Битрейт : 3857 Кбит/сек
Ширина : 1280 пикселей
Высота : 700 пикселей
Соотношение сторон : 1,85:1
Частота кадров : 23,976 кадра/сек
Цветовое пространство : YUV
Субдискретизация насыщенности : 4:2:0
Битовая глубина : 8 бит
Тип развёртки : Прогрессивная
Бит/(Пиксели*Кадры) : 0.180
Размер потока : 2,62 Гбайт (88%)
Заголовок : The.Hidden.1987.WEB-DL.AVO.Gavrilov.DVO.cw
Язык : English
Default : Да
Forced : Нет
Основные цвета : BT.709-5, BT.1361, IEC 61966-2-4, SMPTE RP177
Характеристики трансфера : BT.709-5, BT.1361
Коэффициенты матрицы : BT.709-5, BT.1361, IEC 61966-2-4 709, SMPTE RP177
Аудио #1
Идентификатор : 2
Формат : AC-3
Формат/Информация : Audio Coding 3
Расширение режима : CM (complete main)
Параметр Endianness формата : Big
Идентификатор кодека : A_AC3
Продолжительность : 1 ч. 37 м.
Вид битрейта : Постоянный
Битрейт : 192 Кбит/сек
Каналы : 2 канала
Расположение каналов : Front: L R
Частота : 48,0 КГц
Битовая глубина : 16 бит
Метод сжатия : С потерями
Размер потока : 134 Мбайт (4%)
Заголовок : AC3 2.0 DVO
Язык : Russian
Default : Да
Forced : Нет
Аудио #2
Идентификатор : 3
Формат : AC-3
Формат/Информация : Audio Coding 3
Расширение режима : CM (complete main)
Параметр Endianness формата : Big
Идентификатор кодека : A_AC3
Продолжительность : 1 ч. 37 м.
Вид битрейта : Постоянный
Битрейт : 224 Кбит/сек
Каналы : 2 канала
Расположение каналов : Front: L R
Частота : 48,0 КГц
Битовая глубина : 16 бит
Метод сжатия : С потерями
Задержка видео : 20 мс.
Размер потока : 156 Мбайт (5%)
Заголовок : AVO Gavrilov
Язык : Russian
Default : Нет
Forced : Нет
Меню
00:00:00.000 : en:Main Titles/Robbery
00:03:06.000 : en:The Getaway
00:08:22.000 : en:Lloyd Gallagher, FBI
00:12:21.000 : en:Mouth To Mouth
00:16:29.000 : en:Public Enemy No. 2
00:21:32.000 : en:Lunch Hour
00:24:58.000 : en:"I Want This Car."
00:29:17.000 : en:Cruising
00:31:45.000 : en:Body Repair
00:35:41.000 : en:Dinner With The Becks
00:41:33.000 : en:The Harem Room
00:45:41.000 : en:A Body To Die For
00:51:03.000 : en:Chasing Brenda
01:00:26.000 : en:"It's Not Over..."
01:07:01.000 : en:Answers
01:11:11.000 : en:Masterson's Day Off
01:15:08.000 : en:A Little Extra Help
01:20:39.000 : en:Willis
01:25:54.000 : en:Political Aspirations
01:29:11.000 : en:A Final Gift
01:33:02.000 : en:End Credits
Скриншоты:


Время раздачи: с 9:00 до 1:00

[Цитировать]



Показать сообщения:    

Текущее время: 04-Дек 01:53

Часовой пояс: UTC + 3


Вы не можете начинать темы
Вы не можете отвечать на сообщения
Вы не можете редактировать свои сообщения
Вы не можете удалять свои сообщения
Вы не можете голосовать в опросах
Вы не можете прикреплять файлы к сообщениям
Вы не можете скачивать файлы

!ВНИМАНИЕ!
Сайт не предоставляет электронные версии произведений, а занимается лишь коллекционированием и каталогизацией ссылок, присылаемых и публикуемых на форуме нашими читателями. Если вы являетесь правообладателем какого-либо представленного материала и не желаете, чтобы ссылка на него находилась в нашем каталоге, свяжитесь с нами, и мы незамедлительно удалим ее. Файлы для обмена на трекере предоставлены пользователями сайта, и администрация не несет ответственности за их содержание. Просьба не заливать файлы, защищенные авторскими правами, а также файлы нелегального содержания!