[ Сегодня идет свободное скачивание без начисления Download ]


Статистика раздачи
Нет
 
   
 
Top  
 
 
-Девочки сверху: Французский поцелуй / Mes copines (2006) [H.264] DVDRip- Русское название: Девочки сверху: Французский поцелуй
Оригинальное название: Mes copines
Год выпуска: 2006
Производство: Франция / Recifilms, Axel Films, SCOPE Invest, Scope Pictures
Жанр: Комедия
Описание фильма:
Манон, Аврора и Мари мечтают о победе на конкурсе танцев, организованном парижской мэрией. Приз — целый месяц в «стране их мечты». Но перед решающим днем Манон охватывает такой страх перед сценой, что она теряет способность двигаться.
Остается единственный шанс — уговорить Джену, прекрасную танцовщицу и девушку с характером. Джена соглашается, поставив единственное условие: подруги должны восполнить недостаток техники чувственностью. И для начала им, терзаемым всяческими комплексами, нужно на деле узнать, что это такое — быть «секси»…
Режиссер: Сильви Эйм
Актеры: Стефани Соколински, Анн-Софи Франк, Леа Сейду, Серж Риабукин, Патрик Браудэ, Росси Де Пальма, Тьерри Ашанти
Продолжительность: 01:36:37
Перевод: Профессиональный двуголосый закадровый
Субтитры: Отсутствуют

Российское возрастное ограничение: 16+ (зрителям, достигшим 16 лет)
Дата мировой премьеры: 18 мая 2006
Видеокодек: MPEG-4 AVC/H.264
Битрейт видео: ~2480 Kbps
Размер кадра: 720x400
Качество видео: DVDRip
Аудио #1: Русский, 48 kHz, AC3 Dolby Digital, 3/2 (L,C,R,l,r) + LFE ch, ~384 kbps | Русский двуголосый
Аудио #2: Французский, 48 kHz, AC3 Dolby Digital, 2/0 (L,R) ch, ~192 kbps | Оригинальная звуковая дорожка

MediaInfo

General
Unique ID                      : 173987402788900866115898229240770762042 (0x82E4C140FA495FC28CAC56E6362E953A)
Complete name                  : Mes.copines.2006.DVO.DVDRip-AVC.mkv
Format                         : Matroska
Format version                 : Version 4 / Version 2
File size                      : 2.06 GiB
Duration                       : 1h 36mn
Overall bit rate               : 3 058 Kbps
Encoded date                   : UTC 2013-02-04 10:55:17
Writing application            : mkvmerge v6.0.0 ('Coming Up For Air') built on Jan 20 2013 09:52:00
Writing library                : libebml v1.3.0 + libmatroska v1.4.0
Video
ID                             : 1
Format                         : AVC
Format/Info                    : Advanced Video Codec
Format profile                 : [url=mailto:High@L4.1]High@L4.1[/url]
Format settings, CABAC         : Yes
Format settings, ReFrames      : 8 frames
Codec ID                       : V_MPEG4/ISO/AVC
Duration                       : 1h 36mn
Bit rate                       : 2 480 Kbps
Width                          : 720 pixels
Height                         : 400 pixels
Display aspect ratio           : 16:9
Frame rate mode                : Constant
Frame rate                     : 25.000 fps
Color space                    : YUV
Chroma subsampling             : 4:2:0
Bit depth                      : 8 bits
Scan type                      : Progressive
Bits/(Pixel*Frame)             : 0.344
Stream size                    : 1.63 GiB (79%)
Writing library                : x264 core 119 r2106 07efeb4
Encoding settings              : cabac=1 / ref=8 / deblock=1:-1:-1 / analyse=0x3:0x113 / me=umh / subme=7 / psy=1 / psy_rd=1.00:0.20 / mixed_ref=1 / me_range=16 / chroma_me=1 / trellis=2 / 8x8dct=1 / cqm=0 / deadzone=21,11 / fast_pskip=0 / chroma_qp_offset=-3 / threads=12 / sliced_threads=0 / nr=0 / decimate=0 / interlaced=0 / bluray_compat=0 / constrained_intra=0 / bframes=3 / b_pyramid=2 / b_adapt=2 / b_bias=0 / direct=3 / weightb=1 / open_gop=0 / weightp=2 / keyint=250 / keyint_min=25 / scenecut=40 / intra_refresh=0 / rc_lookahead=50 / rc=2pass / mbtree=1 / bitrate=2480 / ratetol=1.0 / qcomp=0.60 / qpmin=0 / qpmax=69 / qpstep=4 / cplxblur=20.0 / qblur=0.5 / vbv_maxrate=50000 / vbv_bufsize=50000 / nal_hrd=none / ip_ratio=1.40 / aq=1:1.00
Default                        : Yes
Forced                         : No
Audio #1
ID                             : 2
Format                         : AC-3
Format/Info                    : Audio Coding 3
Mode extension                 : CM (complete main)
Format settings, Endianness    : Big
Codec ID                       : A_AC3
Duration                       : 1h 36mn
Bit rate mode                  : Constant
Bit rate                       : 384 Kbps
Channel(s)                     : 6 channels
Channel positions              : Front: L C R, Side: L R, LFE
Sampling rate                  : 48.0 KHz
Bit depth                      : 16 bits
Compression mode               : Lossy
Stream size                    : 265 MiB (13%)
Title                          : Профес (двухголосый закадровый)
Language                       : Russian
Default                        : Yes
Forced                         : No
Audio #2
ID                             : 3
Format                         : AC-3
Format/Info                    : Audio Coding 3
Mode extension                 : CM (complete main)
Format settings, Endianness    : Big
Codec ID                       : A_AC3
Duration                       : 1h 36mn
Bit rate mode                  : Constant
Bit rate                       : 192 Kbps
Channel(s)                     : 2 channels
Channel positions              : Front: L R
Sampling rate                  : 48.0 KHz
Bit depth                      : 16 bits
Compression mode               : Lossy
Stream size                    : 133 MiB (6%)
Title                          : Французский
Language                       : French
Default                        : No
Forced                         : No
Скриншоты:


Время раздачи: с 10:00 до 23:59 по МСК до первых 20 скачавших, далее по возможности
-Все раздачи фильма «Девочки сверху: Французский поцелуй (2006)» на трекере NNM-Club.ru

[Цитировать]



Показать сообщения:    

Текущее время: 10-Дек 15:50

Часовой пояс: UTC + 3


Вы не можете начинать темы
Вы не можете отвечать на сообщения
Вы не можете редактировать свои сообщения
Вы не можете удалять свои сообщения
Вы не можете голосовать в опросах
Вы не можете прикреплять файлы к сообщениям
Вы не можете скачивать файлы

!ВНИМАНИЕ!
Сайт не предоставляет электронные версии произведений, а занимается лишь коллекционированием и каталогизацией ссылок, присылаемых и публикуемых на форуме нашими читателями. Если вы являетесь правообладателем какого-либо представленного материала и не желаете, чтобы ссылка на него находилась в нашем каталоге, свяжитесь с нами, и мы незамедлительно удалим ее. Файлы для обмена на трекере предоставлены пользователями сайта, и администрация не несет ответственности за их содержание. Просьба не заливать файлы, защищенные авторскими правами, а также файлы нелегального содержания!