[ Сегодня идет свободное скачивание без начисления Download ]


Статистика раздачи
Нет
 
   
 
Top  
 
 
-Девочки снова сверху / M?dchen, M?dchen 2 - Loft oder Liebe (2004) DVDRip- Русское название: Девочки снова сверху
Оригинальное название: M?dchen, M?dchen 2 - Loft oder Liebe
Год выпуска: 2004
Производство: Германия
Жанр: Комедия
Описание фильма:
Иногда они уходят добровольно. Иногда получают «крепкого пинка». Это называется «расставание с родителями и начало самостоятельной жизни». В случае с Инкен это был как раз второй вариант.
Она вместе с подружками Леной и Люси решают снять квартиру, но как это сделать при полном отсутствии материальных средств? Выход есть: найти обеспеченных парней с большими… квартирами. У девчонок есть и шарм, и обаяние, и им остается лишь одно: найти подходящую «жертву»…
Режиссер: Петер Герсина
Актеры: Диана Амфт, Каролине Херфурт, Жасмин Герат, Макс Римельт, Себастьян Штробель, Макс фон Тун, Флориан Дэвид Фитц, Саймон Верховен, Надя Петри, Жермен Вагнер
Продолжительность: 01:24:35
Перевод: Многоголосый закадровый профессиональный
Субтитры: Отсутствуют

Российское возрастное ограничение: 16+ (зрителям, достигшим 16 лет)
Дата мировой премьеры: 17 июня 2004
Дата российской премьеры: 8 сентября 2005, «Екатеринбург Арт»
Видеокодек: Xvid
Битрейт видео: ~2007 kb/s
Размер кадра: 704x384
Качество видео: DVDRip
Аудиокодек: AC3 5.1
Битрейт аудио: 448 kbps

MediaInfo

General
Complete name                  : Madchen.Madchen.2.2004.MVO.DVDRip.avi
Format                         : AVI
Format/Info                    : Audio Video Interleave
File size                      : 1.46 GiB
Duration                       : 1h 24mn
Overall bit rate               : 2 465 Kbps
Writing application            : VirtualDubMod 1.5.10.3 | [url=http://www.virtualdub-fr.org]www.virtualdub-fr.org[/url] || (build 2550/release)
Writing library                : VirtualDubMod build 2550/release
Video
ID                             : 0
Format                         : MPEG-4 Visual
Format profile                 : Advanced Simple@L5
Format settings, BVOP          : 2
Format settings, QPel          : No
Format settings, GMC           : No warppoints
Format settings, Matrix        : Custom
Codec ID                       : XVID
Codec ID/Hint                  : XviD
Duration                       : 1h 24mn
Bit rate                       : 2 007 Kbps
Width                          : 704 pixels
Height                         : 384 pixels
Display aspect ratio           : 1.85:1
Frame rate                     : 25.000 fps
Color space                    : YUV
Chroma subsampling             : 4:2:0
Bit depth                      : 8 bits
Scan type                      : Progressive
Compression mode               : Lossy
Bits/(Pixel*Frame)             : 0.297
Stream size                    : 1.19 GiB (81%)
Writing library                : XviD 65
Audio
ID                             : 1
Format                         : AC-3
Format/Info                    : Audio Coding 3
Mode extension                 : CM (complete main)
Format settings, Endianness    : Big
Codec ID                       : 2000
Duration                       : 1h 24mn
Bit rate mode                  : Constant
Bit rate                       : 448 Kbps
Channel(s)                     : 6 channels
Channel positions              : Front: L C R, Side: L R, LFE
Sampling rate                  : 48.0 KHz
Bit depth                      : 16 bits
Compression mode               : Lossy
Stream size                    : 271 MiB (18%)
Alignment                      : Split accross interleaves
Interleave, duration           : 40 ms (1.00 video frame)
Interleave, preload duration   : 500 ms
-Скриншоты:



Последний раз редактировалось: Henkok (2013-02-15 14:47), всего редактировалось 2 раз(а)

[Цитировать]

ссылки уберите

[Цитировать]



Показать сообщения:    

Текущее время: 11-Дек 07:16

Часовой пояс: UTC + 3


Вы не можете начинать темы
Вы не можете отвечать на сообщения
Вы не можете редактировать свои сообщения
Вы не можете удалять свои сообщения
Вы не можете голосовать в опросах
Вы не можете прикреплять файлы к сообщениям
Вы не можете скачивать файлы

!ВНИМАНИЕ!
Сайт не предоставляет электронные версии произведений, а занимается лишь коллекционированием и каталогизацией ссылок, присылаемых и публикуемых на форуме нашими читателями. Если вы являетесь правообладателем какого-либо представленного материала и не желаете, чтобы ссылка на него находилась в нашем каталоге, свяжитесь с нами, и мы незамедлительно удалим ее. Файлы для обмена на трекере предоставлены пользователями сайта, и администрация не несет ответственности за их содержание. Просьба не заливать файлы, защищенные авторскими правами, а также файлы нелегального содержания!