[ Today is free to download without increasing Download ]

DL-List and Torrent activity
-Девочки снова сверху / M?dchen, M?dchen 2 - Loft oder Liebe (2004) DVDRip- Русское название: Девочки снова сверху
Оригинальное название: M?dchen, M?dchen 2 - Loft oder Liebe
Год выпуска: 2004
Производство: Германия
Жанр: Комедия
Описание фильма:
Иногда они уходят добровольно. Иногда получают «крепкого пинка». Это называется «расставание с родителями и начало самостоятельной жизни». В случае с Инкен это был как раз второй вариант.
Она вместе с подружками Леной и Люси решают снять квартиру, но как это сделать при полном отсутствии материальных средств? Выход есть: найти обеспеченных парней с большими… квартирами. У девчонок есть и шарм, и обаяние, и им остается лишь одно: найти подходящую «жертву»…
Режиссер: Петер Герсина
Актеры: Диана Амфт, Каролине Херфурт, Жасмин Герат, Макс Римельт, Себастьян Штробель, Макс фон Тун, Флориан Дэвид Фитц, Саймон Верховен, Надя Петри, Жермен Вагнер
Продолжительность: 01:24:35
Перевод: Многоголосый закадровый профессиональный
Субтитры: Отсутствуют

Российское возрастное ограничение: 16+ (зрителям, достигшим 16 лет)
Дата мировой премьеры: 17 июня 2004
Дата российской премьеры: 8 сентября 2005, «Екатеринбург Арт»
Видеокодек: Xvid
Битрейт видео: ~2007 kb/s
Размер кадра: 704x384
Качество видео: DVDRip
Аудиокодек: AC3 5.1
Битрейт аудио: 448 kbps


Complete name                  : Madchen.Madchen.2.2004.MVO.DVDRip.avi
Format                         : AVI
Format/Info                    : Audio Video Interleave
File size                      : 1.46 GiB
Duration                       : 1h 24mn
Overall bit rate               : 2 465 Kbps
Writing application            : VirtualDubMod | [url=http://www.virtualdub-fr.org]www.virtualdub-fr.org[/url] || (build 2550/release)
Writing library                : VirtualDubMod build 2550/release
ID                             : 0
Format                         : MPEG-4 Visual
Format profile                 : Advanced Simple@L5
Format settings, BVOP          : 2
Format settings, QPel          : No
Format settings, GMC           : No warppoints
Format settings, Matrix        : Custom
Codec ID                       : XVID
Codec ID/Hint                  : XviD
Duration                       : 1h 24mn
Bit rate                       : 2 007 Kbps
Width                          : 704 pixels
Height                         : 384 pixels
Display aspect ratio           : 1.85:1
Frame rate                     : 25.000 fps
Color space                    : YUV
Chroma subsampling             : 4:2:0
Bit depth                      : 8 bits
Scan type                      : Progressive
Compression mode               : Lossy
Bits/(Pixel*Frame)             : 0.297
Stream size                    : 1.19 GiB (81%)
Writing library                : XviD 65
ID                             : 1
Format                         : AC-3
Format/Info                    : Audio Coding 3
Mode extension                 : CM (complete main)
Format settings, Endianness    : Big
Codec ID                       : 2000
Duration                       : 1h 24mn
Bit rate mode                  : Constant
Bit rate                       : 448 Kbps
Channel(s)                     : 6 channels
Channel positions              : Front: L C R, Side: L R, LFE
Sampling rate                  : 48.0 KHz
Bit depth                      : 16 bits
Compression mode               : Lossy
Stream size                    : 271 MiB (18%)
Alignment                      : Split accross interleaves
Interleave, duration           : 40 ms (1.00 video frame)
Interleave, preload duration   : 500 ms

Last edited by Henkok on 2013-02-15 14:47; edited 2 times in total


ссылки уберите


Display posts:    

Current time is: 25-Oct 07:58

All times are UTC + 3

You cannot post new topics in this forum
You cannot reply to topics in this forum
You cannot edit your posts in this forum
You cannot delete your posts in this forum
You cannot vote in polls in this forum
You cannot attach files in this forum
You cannot download files in this forum

The site does not give electronic versions of products, and is engaged only in a collecting and cataloguing of the references sent and published at a forum by our readers. If you are the legal owner of any submitted material and do not wish that the reference to it was in our catalogue, contact us and we shall immediately remove her. Files for an exchange on tracker are given by users of a site, and the administration does not bear the responsibility for their maintenance. The request to not fill in the files protected by copyrights, and also files of the illegal maintenance!