[ Сегодня идет свободное скачивание без начисления Download ]


Статистика раздачи
Нет
 
   
 
Top  
 
 
-Запах успеха / The Smell of Success (2009) SATRip-- Русское название: Запах успеха
Оригинальное название: The Smell of Success
Год выпуска: 2009
Страна: США
Жанр: комедия--Описание фильма:
Трагический инцидент оборвал жизнь Мистера Роуза, владельца сельскохозяйственной компании по утилизации навоза. Во главе компании встала его дочь Розмари, до этого торговавшая косметикой. Убедившись, что дела плохи, она пригласила на работу хорошего менеджера по продажам из отцовского бизнеса — Патрика Фитцпатрика. Он решил сделать из дерьма конфетку в буквальном смысле слова и ввести моду… на дерьмо!--Режиссер: Майкл Полиш
Актеры: Билли Боб Торнтон, Теа Леони, Марк Полиш, Эд Хелмс, Кайл МакЛоклен, Прюитт Тэйлор Винс, Фрэнсис Конрой, Ричард Эдсон, Ария Элперт, Шон Флинн ...
Продолжительность: 01:27:29
Перевод: Многоголосый закадровый
Релиз группа: MixTorrent

Дата мировой премьеры: 20 января 2009, ...
Видеокодек: Xvid
Битрейт видео: ~2038 Кбит/сек
Размер кадра: 720*304
Качество видео: SATRip
Аудиокодек: AC3 2.0
Битрейт аудио: 192 Кбит/сек

MediaInfo:

Общее
Полное имя                               : :\\Zapah.uspeha.2009.SATRip.avi
Формат                                   : AVI
Формат/Информация                        : Audio Video Interleave
Размер файла                             : 1,37 Гбайт
Продолжительность                        : 1 ч. 27 м.
Общий поток                              : 2240 Кбит/сек
Программа кодирования                    : VirtualDubMod 1.5.10.3 | [url=http://www.virtualdub-fr.org]www.virtualdub-fr.org[/url] || (build 2550/release)
Библиотека кодирования                   : VirtualDubMod build 2550/release
Видео
Идентификатор                            : 0
Формат                                   : MPEG-4 Visual
Профиль формата                          : Advanced Simple@L5
Параметр BVOP формата                    : 1
Параметр QPel формата                    : Нет
Параметр GMC формата                     : Без точки перехода
Параметр матрицы формата                 : Default (H.263)
Идентификатор кодека                     : XVID
Идентификатор кодека/Подсказка           : XviD
Продолжительность                        : 1 ч. 27 м.
Битрейт                                  : 2038 Кбит/сек
Ширина                                   : 720 пикселей
Высота                                   : 304 пикселя
Соотношение сторон                       : 2,35:1
Частота кадров                           : 25,000 кадров/сек
Цветовое пространство                    : YUV
Субдискретизация насыщенности            : 4:2:0
Битовая глубина                          : 8 бит
Тип развёртки                            : Прогрессивная
Метод сжатия                             : С потерями
Бит/(Пиксели*Кадры)                      : 0.373
Размер потока                            : 1,25 Гбайт (91%)
Библиотека кодирования                   : XviD 1.2.1 (UTC 2008-12-04)
Аудио
Идентификатор                            : 1
Формат                                   : AC-3
Формат/Информация                        : Audio Coding 3
Расширение режима                        : CM (complete main)
Параметр Endianness формата              : Big
Идентификатор кодека                     : 2000
Продолжительность                        : 1 ч. 27 м.
Вид битрейта                             : Постоянный
Битрейт                                  : 192 Кбит/сек
Каналы                                   : 2 канала
Расположение каналов                     : Front: L R
Частота                                  : 48,0 КГц
Битовая глубина                          : 16 бит
Метод сжатия                             : С потерями
Размер потока                            : 120 Мбайт (9%)
Выравнивание                             : Разделение по промежуткам
Продолжительность промежутка             : 40  мс. (1,00 видеокадр)
Время предзагрузки промежутка            : 500  мс.
Скриншоты: Время раздачи: 24/7 до первых 3-х скачавших, далее по возможности

[Цитировать]



Показать сообщения:    

Текущее время: 07-Дек 11:39

Часовой пояс: UTC + 3


Вы не можете начинать темы
Вы не можете отвечать на сообщения
Вы не можете редактировать свои сообщения
Вы не можете удалять свои сообщения
Вы не можете голосовать в опросах
Вы не можете прикреплять файлы к сообщениям
Вы не можете скачивать файлы

!ВНИМАНИЕ!
Сайт не предоставляет электронные версии произведений, а занимается лишь коллекционированием и каталогизацией ссылок, присылаемых и публикуемых на форуме нашими читателями. Если вы являетесь правообладателем какого-либо представленного материала и не желаете, чтобы ссылка на него находилась в нашем каталоге, свяжитесь с нами, и мы незамедлительно удалим ее. Файлы для обмена на трекере предоставлены пользователями сайта, и администрация не несет ответственности за их содержание. Просьба не заливать файлы, защищенные авторскими правами, а также файлы нелегального содержания!