[ Сегодня идет свободное скачивание без начисления Download ]


Статистика раздачи
Нет
 
   
 
Top  
 
 
-Пианино / The Piano (1993) HDRip Русское название: Пианино
Оригинальное название: The Piano
Год выпуска: 1993
Жанр: Драма, Мелодрама
Описание фильма: Середина 19-го века. Немая Ада вместе с маленькой дочерью и любимым пианино покидает родную Шотландию и переезжает на другой конец света, в Новую Зеландию, где ее ждет будущий муж Стюарт. Он отказывается доставить в дом пианино, которое остается брошенным на берегу. Ада, не говорящая с шести лет, все же показывает мужу всю глубину своего гнева. Для этой сильной женщины молчание далеко не знак согласия.
Сосед Стюарта Бэйнс, похожий на дикаря, привозит пианино, заменяющее Аде голос, к себе домой. Она может получить его назад, но только если будет приходить к Бэйнсу домой и давать ему уроки музыки — по числу клавиш. Эти уроки заведут их в пучину роковых страстей…
Режиссер: Джейн Кэмпион
Актеры: Холли Хантер, Харви Кейтель, Сэм Нил, Анна Пэкуин, Керри Уолкер, Женевьева Лемон, Танджия Бэйкер, Йен Мун, Питер Деннетт, Те Уотануи Скипуиз
Продолжительность: 02:00:51
Перевод: Двуголосый закадровый (А.Рахленко & Н.Казначеева)
Субтитры: Русские, Английские (внешние srt)

Дата мировой премьеры: 15 мая 1993
Видеокодек: Xvid
Битрейт видео: ~1360
Размер кадра: 720x400
Качество видео: HDRip
Аудио #1: 48 kHz, AC3 Dolby Digital, 2 ch, ~192.00 kbps / Русский | (А.Рахленко & Н.Казначеева)
Аудио #2: 48 kHz, AC3 Dolby Digital, 2 ch, ~160.00 kbps / Английский | (Оригинал)
&

MediaInfo

Общее
Полное имя : F:\Роздачи\The Piano.1993.HDRip\The Piano.1993.HDRip.avi
Формат : AVI
Формат/Информация : Audio Video Interleave
Профиль формата : OpenDML
Настройки формата : rec
Размер файла : 1,45 Гбайт
Продолжительность : 2 ч. 0 м.
Общий поток : 1719 Кбит/сек
Название фильма : Пианино / The Piano (1993) HDRip rip by Rulya74
Программа кодирования : AVI-Mux GUI 1.17.8.3, Feb 16 201019:42:50
Видео
Идентификатор : 0
Формат : MPEG-4 Visual
Профиль формата : Advanced [email protected]
Параметр BVOP формата : 1
Параметр QPel формата : Нет
Параметр GMC формата : Без точки перехода
Параметр матрицы формата : Выборочная
Режим смешивания : Сжатый битовый поток
Идентификатор кодека : XVID
Идентификатор кодека/Подсказка : XviD
Продолжительность : 2 ч. 0 м.
Битрейт : 1360 Кбит/сек
Ширина : 720 пикселей
Высота : 400 пикселей
Соотношение сторон : 16:9
Частота кадров : 23,976 кадра/сек
Цветовое пространство : YUV
Субдискретизация насыщенности : 4:2:0
Битовая глубина : 8 бит
Тип развёртки : Прогрессивная
Метод сжатия : С потерями
Бит/(Пиксели*Кадры) : 0.197
Размер потока : 1,15 Гбайт (79%)
Библиотека кодирования : XviD 65
Аудио #1
Идентификатор : 1
Формат : AC-3
Формат/Информация : Audio Coding 3
Расширение режима : CM (complete main)
Параметр Endianness формата : Big
Идентификатор кодека : 2000
Продолжительность : 2 ч. 0 м.
Вид битрейта : Постоянный
Битрейт : 192 Кбит/сек
Каналы : 2 канала
Расположение каналов : Front: L R
Частота : 48,0 КГц
Битовая глубина : 16 бит
Метод сжатия : С потерями
Размер потока : 166 Мбайт (11%)
Выравнивание : Соединение по промежуткам
Продолжительность промежутка : 64 мс. (1,53 видеокадра)
Время предзагрузки промежутка : 192 мс.
Заголовок : Профессиональный двухголосый (А. Рахленко и Н. Казначеева)
Аудио #2
Идентификатор : 2
Формат : AC-3
Формат/Информация : Audio Coding 3
Расширение режима : CM (complete main)
Параметр Endianness формата : Big
Идентификатор кодека : 2000
Продолжительность : 2 ч. 0 м.
Вид битрейта : Постоянный
Битрейт : 160 Кбит/сек
Каналы : 2 канала
Расположение каналов : Front: L R
Частота : 48,0 КГц
Битовая глубина : 16 бит
Метод сжатия : С потерями
Размер потока : 138 Мбайт (9%)
Выравнивание : Соединение по промежуткам
Продолжительность промежутка : 64 мс. (1,53 видеокадра)
Время предзагрузки промежутка : 192 мс.
Заголовок : Оригинал (Английский)
Скриншоты:

Время раздачи: с 8:00 до 23:00

[Цитировать]



Показать сообщения:    

Текущее время: 06-Дек 11:19

Часовой пояс: UTC + 3


Вы не можете начинать темы
Вы не можете отвечать на сообщения
Вы не можете редактировать свои сообщения
Вы не можете удалять свои сообщения
Вы не можете голосовать в опросах
Вы не можете прикреплять файлы к сообщениям
Вы не можете скачивать файлы

!ВНИМАНИЕ!
Сайт не предоставляет электронные версии произведений, а занимается лишь коллекционированием и каталогизацией ссылок, присылаемых и публикуемых на форуме нашими читателями. Если вы являетесь правообладателем какого-либо представленного материала и не желаете, чтобы ссылка на него находилась в нашем каталоге, свяжитесь с нами, и мы незамедлительно удалим ее. Файлы для обмена на трекере предоставлены пользователями сайта, и администрация не несет ответственности за их содержание. Просьба не заливать файлы, защищенные авторскими правами, а также файлы нелегального содержания!