[ Сегодня идет свободное скачивание без начисления Download ]


Статистика раздачи
Нет
 
   
 
Top  
 
 
-Таис / Thais (1983) DVDRip- Русское название: Таис
Оригинальное название: Thais
Производство: Польша / Vico Films
Год выпуска: 1983
Жанр: Драма
Описание фильма:
По книге Анатоля Франса… Первые века христианства. Монах, ушедший от мира в пустыню, никак не может забыть «звезду Александрии» красавицу Таис, язычницу и председательницу развратных оргий. Сама же Таис – начинает бояться будущего старения и неизбежной смерти. Нищий монашествующий проповедник отправляется в Александрию для встречи с блудницей и обещает ей Любовь и Жизнь вечную, если она отречётся от своего распутного образа жизни и примет крещение…
Режиссер: Рышард Бер
Актеры: Дорота Квятковская, Ежи Крышка, Петр Гарлицки, Бронислав Павлик
Продолжительность: Дорота Квятковская, Ежи Крышка, Петр Гарлицки, Бронислав Павлик
Перевод: Многоголосый закадровый
Язык субтитров: Русский (на непереведеные места)
Вид субтитров: Отдельным файлом

Дата мировой премьеры: 24 сентября 1984
Видеокодек: Xvid
Битрейт видео: ~1294 Кбит/сек
Размер кадра: 704x496
Качество видео: DVDRip
Аудиокодек: MP3 2 ch
Битрейт аудио: 128 Кбит/сек

MediaInfo:

Общее
Полное имя : Thais.1983.XviD.DVDRip\Thais.1983.XviD.DVDRip.avi
Формат : AVI
Формат/Информация : Audio Video Interleave
Профиль формата : OpenDML
Размер файла : 1022 Мбайт
Продолжительность : 1 ч. 40 м.
Общий поток : 1429 Кбит/сек
Видео
Идентификатор : 0
Формат : MPEG-4 Visual
Профиль формата : Simple@L3
Параметр BVOP формата : Нет
Параметр QPel формата : Нет
Параметр GMC формата : Без точки перехода
Параметр матрицы формата : Default (H.263)
Идентификатор кодека : XVID
Идентификатор кодека/Подсказка : XviD
Продолжительность : 1 ч. 40 м.
Битрейт : 1294 Кбит/сек
Ширина : 704 пикселя
Высота : 496 пикселей
Соотношение сторон : 1,419
Частота кадров : 25,000 кадров/сек
Цветовое пространство : YUV
Субдискретизация насыщенности : 4:2:0
Битовая глубина : 8 бит
Тип развёртки : Прогрессивная
Метод сжатия : С потерями
Бит/(Пиксели*Кадры) : 0.148
Размер потока : 926 Мбайт (91%)
Библиотека кодирования : ZJMedia MPEG Encoder
Аудио
Идентификатор : 1
Формат : MPEG Audio
Версия формата : Version 1
Профиль формата : Layer 3
Режим : Joint stereo
Расширение режима : MS Stereo
Идентификатор кодека : 55
Идентификатор кодека/Подсказка : MP3
Продолжительность : 1 ч. 40 м.
Вид битрейта : Постоянный
Битрейт : 128 Кбит/сек
Каналы : 2 канала
Частота : 44,1 КГц
Метод сжатия : С потерями
Задержка видео : 23 мс.
Размер потока : 91,6 Мбайт (9%)
Выравнивание : Разделение по промежуткам
Продолжительность промежутка : 1000 мс. (25,00 видеокадров)
Общее
Полное имя : Thais.1983.XviD.DVDRip\Thais.1983.XviD.DVDRip.srt
Размер файла : 2,16 Кбайт
Общее
Полное имя : Thais.1983.XviD.DVDRip\Thumbs.db
Размер файла : 4,00 Кбайт
У финальной сцены звукового перевода нет. Прилагаются субтитры.Скриншоты:

Время раздачи
с 8:00 до 02:00

[Цитировать]



Показать сообщения:    

Текущее время: 09-Дек 01:11

Часовой пояс: UTC + 3


Вы не можете начинать темы
Вы не можете отвечать на сообщения
Вы не можете редактировать свои сообщения
Вы не можете удалять свои сообщения
Вы не можете голосовать в опросах
Вы не можете прикреплять файлы к сообщениям
Вы не можете скачивать файлы

!ВНИМАНИЕ!
Сайт не предоставляет электронные версии произведений, а занимается лишь коллекционированием и каталогизацией ссылок, присылаемых и публикуемых на форуме нашими читателями. Если вы являетесь правообладателем какого-либо представленного материала и не желаете, чтобы ссылка на него находилась в нашем каталоге, свяжитесь с нами, и мы незамедлительно удалим ее. Файлы для обмена на трекере предоставлены пользователями сайта, и администрация не несет ответственности за их содержание. Просьба не заливать файлы, защищенные авторскими правами, а также файлы нелегального содержания!