[ Сегодня идет свободное скачивание без начисления Download ]


Статистика раздачи
Нет
 
   
 
Top  
 
 
-Храбрец / The Brave (1997) DVDRip [H.264]- Страна: США
Русское название: Храбрец
Оригинальное название: The Brave
Год выпуска: 1997
Жанр: Драма
Описание фильма:
Безработный и отсидевший в тюрьме индеец по имени Рафаэль ищет работу, чтобы прокормить свою семью, живущую на свалке возле города. Он попадается на глаза к продюсеру фильма, в планах которого снять настоящее убийство, и тот предлагает сделку: жестокая смерть за сумму в 50 тысяч долларов. Герою даётся всего одна неделя. Он продолжает жить своей обычной жизнью, не прикасаясь к авансу продюсера. Но вскоре к нему приходит понимание того, что назад хода нет. И Рафаэль пытается за оставшееся время помочь своей семье, сделать её жизнь хоть немного приятнее. Но предстоит неминуемая расплата…
Режиссер: Джонни Депп / Johnny Depp
Актеры: Джонни Депп, Марлон Брандо, Маршалл Белл, Элпидия Каррильо, Фредерик Форрест, Кларенс Уильямс III, Макс Перлих, Луис Гузман, Коуди Лайтнинг, Nicole Mancera
Продолжительность: 01:58:16
Перевод: Многоголосый закадровый, Одноголосный закадровый

Качество: DVDRip by Wrnr
Формат: MKV
Видео: x264, 702x542@998x542 (16:9), 25.000fps, 2436Kbps, 0.256bit/pixel
Аудио 1: AC3, 6ch, 48 kHz, ~ 384.00 kbps, Многоголосый закадровый
Аудио 2: 48 kHz, AC3, 2ch, ~ 192.00 kbps, Одноголосный закадровый (Горчаков)
Аудио 3: 48 kHz, AC3, 2ch, ~ 192.00 kbps, Original, English
Субтитры: Английские
Сэмпл: Ссылка

Mediainfo

General
General
Complete name : Храбрец. The Brave.1997.(мощная драма от Johnny Depp).DVDRip-AVC.mkv
Format : Matroska
Format version : Version 2
File size : 2.70 GiB
Duration : 1h 58mn
Overall bit rate : 3 269 Kbps
Movie name : Храбрец / The Brave (1997) - by Wrnr
Encoded date : UTC 2011-08-12 14:24:21
Writing application : mkvmerge v4.9.1 ('Ich will') сборка от Jul 11 2011 23:53:15
Writing library : libebml v1.2.1 + libmatroska v1.1.1
Attachment : Yes
Video
ID : 1
Format : AVC
Format/Info : Advanced Video Codec
Format profile : High@L4.1
Format settings, CABAC : Yes
Format settings, ReFrames : 10 frames
Codec ID : V_MPEG4/ISO/AVC
Duration : 1h 58mn
Bit rate : 2 436 Kbps
Width : 702 pixels
Height : 542 pixels
Display aspect ratio : 1.85:1
Original display aspect ratio : 1.85:1
Frame rate mode : Constant
Frame rate : 25.000 fps
Color space : YUV
Chroma subsampling : 4:2:0
Bit depth : 8 bits
Scan type : Progressive
Bits/(Pixel*Frame) : 0.256
Stream size : 2.01 GiB (75%)
Writing library : x264 core 116 r2044 392e762
Encoding settings : cabac=1 / ref=10 / deblock=1:-2:-1 / analyse=0x3:0x133 / me=umh / subme=10 / psy=1 / psy_rd=1.20:0.15 / mixed_ref=1 / me_range=32 / chroma_me=1 / trellis=2 / 8x8dct=1 / cqm=0 / deadzone=21,11 / fast_pskip=0 / chroma_qp_offset=-3 / threads=3 / sliced_threads=0 / nr=0 / decimate=1 / interlaced=0 / bluray_compat=0 / constrained_intra=0 / bframes=10 / b_pyramid=2 / b_adapt=2 / b_bias=0 / direct=3 / weightb=1 / open_gop=0 / weightp=2 / keyint=250 / keyint_min=23 / scenecut=40 / intra_refresh=0 / rc_lookahead=0 / rc=crf / mbtree=0 / crf=18.9 / qcomp=0.65 / qpmin=0 / qpmax=69 / qpstep=4 / vbv_maxrate=50000 / vbv_bufsize=62500 / crf_max=0.0 / nal_hrd=none / ip_ratio=1.40 / pb_ratio=1.20 / aq=1:0.90 / zones=171561,177413,q=35
Language : English
Default : Yes
Forced : No
Matrix coefficients : BT.601
Audio #1
ID : 2
Format : AC-3
Format/Info : Audio Coding 3
Mode extension : CM (complete main)
Format settings, Endianness : Big
Codec ID : A_AC3
Duration : 1h 58mn
Bit rate mode : Constant
Bit rate : 384 Kbps
Channel(s) : 6 channels
Channel positions : Front: L C R, Side: L R, LFE
Sampling rate : 48.0 KHz
Bit depth : 16 bits
Compression mode : Lossy
Stream size : 325 MiB (12%)
Title : MVO
Language : Russian
Default : Yes
Forced : No
Audio #2
ID : 3
Format : AC-3
Format/Info : Audio Coding 3
Mode extension : CM (complete main)
Format settings, Endianness : Big
Codec ID : A_AC3
Duration : 1h 58mn
Bit rate mode : Constant
Bit rate : 192 Kbps
Channel(s) : 2 channels
Channel positions : Front: L R
Sampling rate : 48.0 KHz
Bit depth : 16 bits
Compression mode : Lossy
Stream size : 162 MiB (6%)
Title : AVO (Горчаков)
Language : Russian
Default : No
Forced : No
Audio #3
ID : 4
Format : AC-3
Format/Info : Audio Coding 3
Format profile : Dolby Digital
Mode extension : CM (complete main)
Format settings, Endianness : Big
Codec ID : A_AC3
Duration : 1h 58mn
Bit rate mode : Constant
Bit rate : 192 Kbps
Channel(s) : 2 channels
Channel positions : Front: L R
Sampling rate : 48.0 KHz
Bit depth : 16 bits
Compression mode : Lossy
Stream size : 162 MiB (6%)
Title : Original
Language : English
Default : No
Forced : No
Text
ID : 5
Format : UTF-8
Codec ID : S_TEXT/UTF8
Codec ID/Info : UTF-8 Plain Text
Language : English
Default : Yes
Forced : No
Скриншоты:

Моё мнение о фильме

Must see. Отличный фильм. Но книга лучше.
Рекомендую.
Время раздачи: С 10:00 до 17:00 (мск)

[Цитировать]



Показать сообщения:    

Текущее время: 10-Дек 00:09

Часовой пояс: UTC + 3


Вы не можете начинать темы
Вы не можете отвечать на сообщения
Вы не можете редактировать свои сообщения
Вы не можете удалять свои сообщения
Вы не можете голосовать в опросах
Вы не можете прикреплять файлы к сообщениям
Вы не можете скачивать файлы

!ВНИМАНИЕ!
Сайт не предоставляет электронные версии произведений, а занимается лишь коллекционированием и каталогизацией ссылок, присылаемых и публикуемых на форуме нашими читателями. Если вы являетесь правообладателем какого-либо представленного материала и не желаете, чтобы ссылка на него находилась в нашем каталоге, свяжитесь с нами, и мы незамедлительно удалим ее. Файлы для обмена на трекере предоставлены пользователями сайта, и администрация не несет ответственности за их содержание. Просьба не заливать файлы, защищенные авторскими правами, а также файлы нелегального содержания!