[ Сегодня идет свободное скачивание без начисления Download ]


Статистика раздачи
Нет
 
   
 
Top  
 
 
-Патрульный / Linewatch (2008) DVDRip- Русское название: Патрульный
Оригинальное название: Linewatch
Год выпуска: 2008
Жанр: Триллер, Драма, Криминал-Описание фильма:
Майкл Диксон — уважаемый агент патрульной службы на границе США-Мексика и заботливый семьянин. Но в недавнем прошлом он был по другую сторону Закона и являлся членом бандитской группировки в Лос-Анджелесе. Казалось, его жизнь наладилась. Но, как известно, из банды просто так не уходят...-Режиссер: Кевин Брэй
Актеры: Кьюба Гудинг мл., Омари Хардвик, Шарон Лил, Ивэн Росс, Дин Норрис, Крис Браунинг, Омар Пас Тружильо, Джош Коффман-Продолжительность: 01:25:55
Перевод: Многоголосый закадровый-
Дата мировой премьеры: 2 октября 2008
Дата выхода DVD релиза: 6 ноября 2008, «Columbia/Sony»-Видеокодек: Xvid
Битрейт видео: ~1816 kb/s
Размер кадра: 672x272
Качество видео: DVDRip
Аудиокодек: AC3 5.1
Битрейт аудио: 448 kb/s-

MediaInfo

General
Complete name : D:\Загрузки\Раздачи\Patrulniy_Boogerman.avi
Format : AVI
Format/Info : Audio Video Interleave
File size : 1.36 GiB
Duration : 1h 25mn
Overall bit rate : 2 273 Kbps
Writing application : VirtualDubMod 1.5.10.2 (build 2540/release)
Writing library : VirtualDubMod build 2540/release
Video
ID : 0
Format : MPEG-4 Visual
Format profile : Advanced [email protected]
Format settings, BVOP : 2
Format settings, QPel : No
Format settings, GMC : No warppoints
Format settings, Matrix : Default (MPEG)
Muxing mode : Packed bitstream
Codec ID : XVID
Codec ID/Hint : XviD
Duration : 1h 25mn
Bit rate : 1 816 Kbps
Width : 672 pixels
Height : 272 pixels
Display aspect ratio : 2.471
Frame rate : 25.000 fps
Color space : YUV
Chroma subsampling : 4:2:0
Bit depth : 8 bits
Scan type : Progressive
Compression mode : Lossy
Bits/(Pixel*Frame) : 0.397
Stream size : 1.09 GiB (80%)
Writing library : XviD 1.2.0.dev47 (UTC 2006-11-01)
Audio
ID : 1
Format : AC-3
Format/Info : Audio Coding 3
Mode extension : CM (complete main)
Codec ID : 2000
Duration : 1h 25mn
Bit rate mode : Constant
Bit rate : 448 Kbps
Channel(s) : 6 channels
Channel positions : Front: L C R, Side: L R, LFE
Sampling rate : 48.0 KHz
Bit depth : 16 bits
Compression mode : Lossy
Stream size : 275 MiB (20%)
Alignment : Split accross interleaves
Interleave, duration : 40 ms (1.00 video frame)
Interleave, preload duration : 500 ms
Скриншоты:

Время раздачи: С 08:00 до 22:00

[Цитировать]



Показать сообщения:    

Текущее время: 05-Дек 03:33

Часовой пояс: UTC + 3


Вы не можете начинать темы
Вы не можете отвечать на сообщения
Вы не можете редактировать свои сообщения
Вы не можете удалять свои сообщения
Вы не можете голосовать в опросах
Вы не можете прикреплять файлы к сообщениям
Вы не можете скачивать файлы

!ВНИМАНИЕ!
Сайт не предоставляет электронные версии произведений, а занимается лишь коллекционированием и каталогизацией ссылок, присылаемых и публикуемых на форуме нашими читателями. Если вы являетесь правообладателем какого-либо представленного материала и не желаете, чтобы ссылка на него находилась в нашем каталоге, свяжитесь с нами, и мы незамедлительно удалим ее. Файлы для обмена на трекере предоставлены пользователями сайта, и администрация не несет ответственности за их содержание. Просьба не заливать файлы, защищенные авторскими правами, а также файлы нелегального содержания!