[ Сегодня идет свободное скачивание без начисления Download ]


Статистика раздачи
Нет
 
   
 
Top  
 
 
-Нежное милосердие / Tender Mercies (1983) DVDRip- Страна: США, Австралия
Русское название: Нежное милосердие
Оригинальное название: Tender Mercies
Год выпуска: 1983
Жанр: Драма, Мелодрама
Описание фильма:
Жизнь певца кантри не удалась. Каждый день одно и то же,никаких перспектив,и радость приносит только "общение" с рюмочкой ,которая с каждым днем становиться все милее и милее и, наконец, оказывается единственной верной подружкой.И только нежное милосердие молодой привлекательной вдовы и ее сынишки заставило его однажды взлянуть на мир трезвыми глазами и пробудило стремление к нормальной жизни,которая,оказывается существует,просто он из нее выпал...
Режиссер: Брюс Бересфорд /Bruce Beresford
Актеры: Роберт Дювалл /Robert Duvall/, Тэсс Харпер /Tess Harper/, Бетти Бакли /Betty Buckley/, Уилфорд Бримли /Wilford Brimley/, Эллен Баркин /Ellen Barkin/, Аллан Хаббард /Allan Hubbard/, Ленни Вон Долен /Lenny von Dohlen/, Пол Глисон /Paul Gleason/, Майкл Крабтри /Michael Crabtree/, Норман Беннет /Norman Bennett
Продолжительность: 01:31:57
Перевод: Многоголосый закадровый

Качество: DVDRip by warmfront
Формат: mkv
Видео: DivX, 704x416 (1.69:1), 23.976 fps, ~1605 kbps avg, 0,23 bit/pixel
Аудио 1: AC3 Dolby Digital, 3/2 (L,C,R,I,r)+LFE ch, 48kHz, ~448.00 kbps avg, Русский
Аудио 2: AC3 Dolby Digital, 3/2 (L,C,R,I,r)+LFE ch, 48kHz, ~448.00 kbps avg, English
Субтитры: Русские
Сэмпл: Ссылка

Mediainfo

General
General
Complete name : Нежное милосердие. Tender Mercies. 1983. (мощная оскароносная драма от Bruce Beresford). DVDRip.mkv
Format : Matroska
Format version : Version 2
File size : 1.61 GiB
Duration : 1h 31mn
Overall bit rate : 2 504 Kbps
Encoded date : UTC 2012-09-03 14:58:25
Writing application : mkvmerge v5.5.0 ('Healer') built on Apr 6 2012 21:43:24
Writing library : libebml v1.2.3 + libmatroska v1.3.0
Video
ID : 1
Format : MPEG-4 Visual
Format settings, BVOP : Yes
Format settings, QPel : No
Format settings, GMC : No warppoints
Format settings, Matrix : Default (H.263)
Codec ID : V_MS/VFW/FOURCC / DX50
Codec ID/Hint : DivX 5
Duration : 1h 31mn
Bit rate : 1 558 Kbps
Width : 704 pixels
Height : 416 pixels
Display aspect ratio : 1.692
Frame rate mode : Constant
Frame rate : 23.976 fps
Color space : YUV
Chroma subsampling : 4:2:0
Bit depth : 8 bits
Scan type : Progressive
Compression mode : Lossy
Bits/(Pixel*Frame) : 0.222
Stream size : 1.00 GiB (62%)
Title : Нежное милосердие. Tender Mercies (Bruce Beresford). 1983
Writing library : DivX 6.7.0 (UTC 2007-09-20)
Language : English
Default : Yes
Forced : No
Audio #1
ID : 2
Format : AC-3
Format/Info : Audio Coding 3
Mode extension : CM (complete main)
Format settings, Endianness : Big
Codec ID : A_AC3
Duration : 1h 31mn
Bit rate mode : Constant
Bit rate : 448 Kbps
Channel(s) : 6 channels
Channel positions : Front: L C R, Side: L R, LFE
Sampling rate : 48.0 KHz
Bit depth : 16 bits
Compression mode : Lossy
Stream size : 295 MiB (18%)
Title : MVO
Language : Russian
Default : Yes
Forced : No
Audio #2
ID : 3
Format : AC-3
Format/Info : Audio Coding 3
Mode extension : CM (complete main)
Format settings, Endianness : Big
Codec ID : A_AC3
Duration : 1h 31mn
Bit rate mode : Constant
Bit rate : 448 Kbps
Channel(s) : 6 channels
Channel positions : Front: L C R, Side: L R, LFE
Sampling rate : 48.0 KHz
Bit depth : 16 bits
Compression mode : Lossy
Stream size : 295 MiB (18%)
Title : Original
Language : English
Default : No
Forced : No
Text
ID : 4
Format : UTF-8
Codec ID : S_TEXT/UTF8
Codec ID/Info : UTF-8 Plain Text
Title : Русские
Language : Russian
Default : No
Forced : No

Важно! О нестандартном наполнении контейнера mkv в данной раздаче!

Причиной нестандартного наполнения контейнера .mkv в данном случае было желание "положить" все имеющиеся аудиодорожки и субтитры в один файл с имеющимся видео "вменяемого" размера и качества.
Сделано с помощью mkvmerge.
Файл воспроизводится корректно, рассинхрона/артефактов/рывков изображения (вызванных такой процедурой) - нет. Аудиодорожки переключаются стандартно. Перемотка в штатном режиме.
Однако, чтобы вы убедились в том, что именно у вас (в ваших конкретных условиях просмотра - PC, HD-медиаплеер, TV и пр.) этот файл будет воспроизводиться корректно, - скачайте, пожалуйста, сэмпл!
Скриншоты:

Моё мнение о фильме

Отличный фильм.
Рекомендую.
Время раздачи: С 10:00 до 17:00 (мск)

[Цитировать]



Показать сообщения:    

Текущее время: 04-Дек 15:18

Часовой пояс: UTC + 3


Вы не можете начинать темы
Вы не можете отвечать на сообщения
Вы не можете редактировать свои сообщения
Вы не можете удалять свои сообщения
Вы не можете голосовать в опросах
Вы не можете прикреплять файлы к сообщениям
Вы не можете скачивать файлы

!ВНИМАНИЕ!
Сайт не предоставляет электронные версии произведений, а занимается лишь коллекционированием и каталогизацией ссылок, присылаемых и публикуемых на форуме нашими читателями. Если вы являетесь правообладателем какого-либо представленного материала и не желаете, чтобы ссылка на него находилась в нашем каталоге, свяжитесь с нами, и мы незамедлительно удалим ее. Файлы для обмена на трекере предоставлены пользователями сайта, и администрация не несет ответственности за их содержание. Просьба не заливать файлы, защищенные авторскими правами, а также файлы нелегального содержания!