[ Сегодня идет свободное скачивание без начисления Download ]


Статистика раздачи
Нет
 
   
 
Top  
 
 
-Руби Спаркс / Ruby Sparks (2012) [H.264] BDRip«Невероятная история любви, ставшая реальностью»- Русское название: Руби Спаркс
Оригинальное название: Ruby Sparks
Год выпуска: 2012
Производство: США / Bona Fide Productions, Fox Searchlight Pictures
Жанр: Фэнтези, Мелодрама, Комедия
Перевод: Дублированный [Лицензия, R5]
Субтитры: Вшитые отключаемые
Язык субтитров: Русский, Английский
Дата мировой премьеры: 25 июля 2012
Дата российской премьеры: 27 сентября 2012, «Двадцатый Век Фокс СНГ»
Дата выхода DVD релиза: 31 января 2013, «Двадцатый Век Фокс СНГ»
Режиссер: Джонатан Дэйтон, Валери Фэрис
Продюсер: Альберт Бергер, Рон Йеркса, Пол Дано
Актеры: Пол Дано, Зои Казан, Антонио Бандерас, Аннетт Бенинг, Стив Куган, Эллиот Гулд, Крис Мессина, Аасиф Мандви, Тони Тракс, Дебора Энн Уолл
Описание фильма:
Молодой, но уже успешный писатель переживает творческие и душевные муки: новый роман никак не выходит, музы все нет, да и вообще с девушками как-то не клеится. И вот, призвав на помощь остатки своей фантазии, Кэлвин придумывает себе девушку по имени Руби Спаркс — умницу, красавицу, спортсменку, короче говоря, идеал, а спустя неделю… обнаруживает этот идеал из плоти и крови на своем собственном диване. Уходить Руби явно не собирается, но вот кем она окажется — Галатеей или Белочкой?..

Рейтинг MPAA: R (лицам до 17 лет обязательно присутствие взрослого)
Российское возрастное ограничение: 16+ (зрителям, достигшим 16 лет)
Продолжительность: 01:44:06
Качество видео: BDRip
Видеокодек: MPEG-4 AVC/H.264
Битрейт видео: ~1628 Kbps
Размер кадра: 960x520
Audio #1: 48 kHz, AC3 Dolby Digital, 3/2 (L,C,R,l,r) + LFE ch, 384 kbps (Русский дублированный)
Audio #2: 48 kHz, AC3 Dolby Digital, 3/2 (L,C,R,l,r) + LFE ch, 448 kbps (Оригинальный английский) / Отдельным файлом

Сравнение релизов

сравнение с Руби Спаркс / Ruby Sparks (2012) [H.264] BDRip
В том релизе перекроп (соотношение стороны 2.40:1 против 1.85:1 в этой раздаче)

MediaInfo

General
Unique ID                      : 183028515441486809928098425948654086913 (0x89B20285F578580D807F5B3E5A552B01)
Complete name                  : Ruby.Sparks.2012.D.BDRip-AVC.RU.EN.[NNM-Club.ru]\Ruby.Sparks.2012.D.BDRip-AVC.mkv
Format                         : Matroska
Format version                 : Version 2
File size                      : 1.46 GiB
Duration                       : 1h 44mn
Overall bit rate               : 2 012 Kbps
Movie name                     : -=POTROKS=-
Encoded date                   : UTC 2013-02-01 04:43:16
Writing application            : mkvmerge v5.7.0 ('The Whirlwind') built on Jul  8 2012 20:08:51
Writing library                : libebml v1.2.3 + libmatroska v1.3.0
Video
ID                             : 1
Format                         : AVC
Format/Info                    : Advanced Video Codec
Format profile                 : [url=mailto:High@L4.1]High@L4.1[/url]
Format settings, CABAC         : Yes
Format settings, ReFrames      : 9 frames
Codec ID                       : V_MPEG4/ISO/AVC
Duration                       : 1h 44mn
Bit rate                       : 1 628 Kbps
Width                          : 960 pixels
Height                         : 520 pixels
Display aspect ratio           : 1.85:1
Frame rate mode                : Constant
Frame rate                     : 23.976 fps
Color space                    : YUV
Chroma subsampling             : 4:2:0
Bit depth                      : 8 bits
Scan type                      : Progressive
Bits/(Pixel*Frame)             : 0.136
Stream size                    : 1.15 GiB (79%)
Title                          : Ruby Sparks
Writing library                : x264 core 125 r2208 d9d2288
Encoding settings              : cabac=1 / ref=9 / deblock=1:-3:-3 / analyse=0x3:0x133 / me=umh / subme=11 / psy=1 / psy_rd=1.08:0.00 / mixed_ref=1 / me_range=32 / chroma_me=1 / trellis=2 / 8x8dct=1 / cqm=0 / deadzone=21,11 / fast_pskip=0 / chroma_qp_offset=-2 / threads=6 / lookahead_threads=1 / sliced_threads=0 / nr=0 / decimate=1 / interlaced=0 / bluray_compat=0 / constrained_intra=0 / bframes=10 / b_pyramid=2 / b_adapt=2 / b_bias=0 / direct=3 / weightb=1 / open_gop=0 / weightp=2 / keyint=240 / keyint_min=23 / scenecut=40 / intra_refresh=0 / rc_lookahead=150 / rc=2pass / mbtree=1 / bitrate=1628 / ratetol=1.0 / qcomp=0.70 / qpmin=0 / qpmax=65 / qpstep=3 / cplxblur=20.0 / qblur=0.5 / vbv_maxrate=20000 / vbv_bufsize=20000 / nal_hrd=none / ip_ratio=1.35 / aq=2:0.90
Language                       : English
Default                        : Yes
Forced                         : No
Audio
ID                             : 2
Format                         : AC-3
Format/Info                    : Audio Coding 3
Mode extension                 : CM (complete main)
Format settings, Endianness    : Big
Codec ID                       : A_AC3
Duration                       : 1h 44mn
Bit rate mode                  : Constant
Bit rate                       : 384 Kbps
Channel(s)                     : 6 channels
Channel positions              : Front: L C R, Side: L R, LFE
Sampling rate                  : 48.0 KHz
Bit depth                      : 16 bits
Compression mode               : Lossy
Stream size                    : 286 MiB (19%)
Title                          : Dub| DD 5.1 @ 384 Kbps
Language                       : Russian
Default                        : Yes
Forced                         : No
Text #1
ID                             : 3
Format                         : UTF-8
Codec ID                       : S_TEXT/UTF8
Codec ID/Info                  : UTF-8 Plain Text
Language                       : English
Default                        : No
Forced                         : No
Text #2
ID                             : 4
Format                         : UTF-8
Codec ID                       : S_TEXT/UTF8
Codec ID/Info                  : UTF-8 Plain Text
Language                       : Russian
Default                        : No
Forced                         : No
General
Complete name                  : Ruby.Sparks.2012.D.BDRip-AVC.RU.EN.[NNM-Club.ru]\Ruby.Sparks.2012.D.BDRip-AVC.EN.ac3
Format                         : AC-3
Format/Info                    : Audio Coding 3
File size                      : 334 MiB
Duration                       : 1h 44mn
Overall bit rate mode          : Constant
Overall bit rate               : 448 Kbps
Audio
Format                         : AC-3
Format/Info                    : Audio Coding 3
Mode extension                 : CM (complete main)
Format settings, Endianness    : Big
Duration                       : 1h 44mn
Bit rate mode                  : Constant
Bit rate                       : 448 Kbps
Channel(s)                     : 6 channels
Channel positions              : Front: L C R, Side: L R, LFE
Sampling rate                  : 48.0 KHz
Bit depth                      : 16 bits
Compression mode               : Lossy
Stream size                    : 334 MiB (100%)
Скриншоты:


Время раздачи: круглосуточно до 20 скачавших, далее по возможности

[Цитировать]



Показать сообщения:    

Текущее время: 09-Дек 05:02

Часовой пояс: UTC + 3


Вы не можете начинать темы
Вы не можете отвечать на сообщения
Вы не можете редактировать свои сообщения
Вы не можете удалять свои сообщения
Вы не можете голосовать в опросах
Вы не можете прикреплять файлы к сообщениям
Вы не можете скачивать файлы

!ВНИМАНИЕ!
Сайт не предоставляет электронные версии произведений, а занимается лишь коллекционированием и каталогизацией ссылок, присылаемых и публикуемых на форуме нашими читателями. Если вы являетесь правообладателем какого-либо представленного материала и не желаете, чтобы ссылка на него находилась в нашем каталоге, свяжитесь с нами, и мы незамедлительно удалим ее. Файлы для обмена на трекере предоставлены пользователями сайта, и администрация не несет ответственности за их содержание. Просьба не заливать файлы, защищенные авторскими правами, а также файлы нелегального содержания!