[ Сегодня идет свободное скачивание без начисления Download ]


Статистика раздачи
Нет
 
   
 
Top  
 
 
-Малена / Malena (2000) BDRip-«Она была слишком красива, а он был слишком молод, чтобы защитить ее»- Русское название: Малена
Оригинальное название: Malena
Год выпуска: 2000
Производство: США, Италия, Medusa Produzione, Miramax Films, Pacific Pictures
Жанр: Драма, мелодрама, военный
Перевод: Дублированный, Авторский (одноголосый, закадровый) Михаил Иванов, Авторский (одноголосый, закадровый) Анатолий Карповский
Субтитры: Вшитые отключаемые
Язык субтитров: Русский (полный), русский (на непродублированные места), английский (полный)
Дата мировой премьеры: 27 октября 2000
Дата выхода DVD релиза: 9 апреля 2009, «Мьюзик-Трейд»
Режиссер: Джузеппе Торнаторе
Продюсер: Карло Бернаскони, Марио Котоне, Фабрицио Ломбардо
Актеры: Моника Беллуччи, Джузеппе Сульфаро, Лючано Федерико, Матильде Пьяна, Пьетро Нотарианни, Гаэтано Ароника, Джилберто Идонеа, Анджело Пеллегрино, Габриэлла Ди Лузио, Пиппо Проввиденти
Описание фильма:
Малена — красавица-вдова, наваждение мужчин и предмет зависти женщин. Жены распускают о ней грязные сплетни. Мужья преследуют ее по пятам и грезят о ней.
«Мне было 13, когда я увидел ее впервые. Прошло время, я любил многих женщин, и когда мы были близки, они спрашивали: буду ли я помнить их? И я говорил: да, я буду помнить вас. Но единственная, кого я никогда не забуду — та, которая никогда не спрашивала. Малена».

Рейтинг R - Детям до 17 лет обязательно присутствие родителей
Возраст 17+ - Зрителям, достигшим 17 лет
Продолжительность: 01:48:04
Качество видео: BDRip
Видеокодек: MPEG-4 AVC/H.264
Битрейт видео: 2300 Кбит/с
Размер кадра: 1024x434
Аудио 1: Русский: (AC3, 6 ch, 448 Кбит/c) - Дублированный
Аудио 2: Русский: (AC3, 6 ch, 384 Кбит/c) - Закадровый (одноголосый, Михаил Иванов)
Аудио 3: Русский: (AC3, 6 ch, 448 Кбит/c) - Закадровый (одноголосый, Анатолий Карповский)
Аудио 4: Итальянский: (AC3, 6 ch, 448 Кбит/c) - Оригинал

Награды

Оскар, 2001 год
Номинации (2):
- Лучшая работа оператора
- Лучший оригинальный саундтрек
Золотой глобус, 2001 год
Номинации (2):
- Лучший саундтрек
- Лучший фильм на иностранном языке — «Италия»
Британская академия, 2001 год
Номинации (1):
- Лучший фильм на иностранном языке
Берлинский кинофестиваль, 2001 год
Номинации (1):
- Золотой Медведь
Европейская киноакадемия, 2001 год
Номинации (2):
- Приз зрительских симпатий за лучшую женскую роль (Моника Беллуччи)
- Приз зрительских симпатий за лучшую работу режиссера (Джузеппе Торнаторе)

Знаете ли вы, что...

Версия для Соединенных Штатов была сильно урезана. В основном, урезанные сцены изображали мечты главного героя-подростка, в которых он занимался любовью с Маленой. Из эротичных сцен была оставлена только та, где мальчик посещает бордель, и ложится в кровать с проституткой, внешне похожей на Малену.

Из книги «3500 кинорецензий»

Данная работа 44-летнего Джузеппе Торнаторе больше всего напоминает его самую лучшую ленту — «Новый кинотеатр «Парадизо» (1988), несколько уступая ей в пронзительности чувств и непреодолимой ностальгии по ушедшим временам. Кстати, вместе с предыдущей картиной этого итальянского режиссёра — историко-романтической фантазией «Легенда об океанском пианисте» (1999), названные произведения образуют своеобразную трилогию о безвозвратном минувшем, которое обречено остаться лишь в благодарной памяти ещё живущих на этом свете, хотя за далью лет оно действительно начинает напоминать выдуманные легенды или кинематографические иллюзии.
Одним из остроумных ходов «Малены» является как раз то, что тринадцатилетний Ренато в своих мечтах представляет себя рядом с местной красавицей Маленой в неких старых фильмах, типа «Тарзана» или «Дилижанса». А другая несомненная отсылка — к сатирическим сицилийским комедиям Пьетро Джерми «Соблазнённая и покинутая» и «Дамы и господа», в создании которых принимал участие сценарист Лючано Винченцони, чей во многом автобиографический рассказ использован в «Малене». Возможно, эта лента не выдержана целиком в необходимом настроении дорогого до слёз воспоминания, но благородный финал, сопровождённый особенно трогательными музыкальными пассажами Эннио Морриконе, искупает излишние претензии.
Сергей Кудрявцев

MediaInfo

Общее
Уникальный идентификатор : 215882923900033701439188165891117240814 (0xA26989EC50088911AD25F002547F51EE)
Полное имя : E:\Cinema\Malena.2000.x264.BDRip.mkv
Формат : Matroska
Версия формата : Version 2
Размер файла : 3,04 Гбайт
Продолжительность : 1 ч. 48 м.
Общий поток : 4029 Кбит/сек
Дата кодирования : UTC 2013-02-03 08:45:13
Программа кодирования : mkvmerge v5.6.0 ('Kenya Kane') built on May 27 2012 16:44:04
Библиотека кодирования : libebml v1.2.3 + libmatroska v1.3.0
Видео
Идентификатор : 1
Формат : AVC
Формат/Информация : Advanced Video Codec
Профиль формата : High@L4.1
Параметр CABAC формата : Да
Параметр ReFrames формата : 8 кадров
Идентификатор кодека : V_MPEG4/ISO/AVC
Продолжительность : 1 ч. 48 м.
Битрейт : 2300 Кбит/сек
Ширина : 1024 пикселя
Высота : 434 пикселя
Соотношение сторон : 2,35:1
Режим частоты кадров : Постоянный
Частота кадров : 23,976 кадра/сек
Цветовое пространство : YUV
Субдискретизация насыщенности : 4:2:0
Битовая глубина : 8 бит
Тип развёртки : Прогрессивная
Бит/(Пиксели*Кадры) : 0.216
Размер потока : 1,68 Гбайт (55%)
Библиотека кодирования : x264 core 125 r2208 d9d2288
Настройки программы : cabac=1 / ref=8 / deblock=1:-2:-2 / analyse=0x3:0x133 / me=umh / subme=11 / psy=1 / psy_rd=1.00:0.15 / mixed_ref=1 / me_range=48 / chroma_me=0 / trellis=2 / 8x8dct=1 / cqm=0 / deadzone=21,11 / fast_pskip=0 / chroma_qp_offset=-3 / threads=6 / lookahead_threads=1 / sliced_threads=0 / nr=0 / decimate=0 / interlaced=0 / bluray_compat=0 / constrained_intra=0 / bframes=8 / b_pyramid=2 / b_adapt=2 / b_bias=0 / direct=3 / weightb=1 / open_gop=1 / weightp=2 / keyint=240 / keyint_min=23 / scenecut=40 / intra_refresh=0 / rc_lookahead=50 / rc=2pass / mbtree=1 / bitrate=2300 / ratetol=1.0 / qcomp=0.60 / qpmin=0 / qpmax=69 / qpstep=4 / cplxblur=20.0 / qblur=0.5 / ip_ratio=1.40 / aq=1:1.00
Язык : English
Default : Да
Forced : Нет
Аудио #1
Идентификатор : 2
Формат : AC-3
Формат/Информация : Audio Coding 3
Расширение режима : CM (complete main)
Параметр Endianness формата : Big
Идентификатор кодека : A_AC3
Продолжительность : 1 ч. 48 м.
Вид битрейта : Постоянный
Битрейт : 448 Кбит/сек
Каналы : 6 каналов
Расположение каналов : Front: L C R, Side: L R, LFE
Частота : 48,0 КГц
Битовая глубина : 16 бит
Метод сжатия : С потерями
Размер потока : 346 Мбайт (11%)
Заголовок : дублированный
Язык : Russian
Default : Да
Forced : Нет
Аудио #2
Идентификатор : 3
Формат : AC-3
Формат/Информация : Audio Coding 3
Расширение режима : CM (complete main)
Параметр Endianness формата : Big
Идентификатор кодека : A_AC3
Продолжительность : 1 ч. 48 м.
Вид битрейта : Постоянный
Битрейт : 384 Кбит/сек
Каналы : 6 каналов
Расположение каналов : Front: L C R, Side: L R, LFE
Частота : 48,0 КГц
Битовая глубина : 16 бит
Метод сжатия : С потерями
Размер потока : 297 Мбайт (10%)
Заголовок : Авторский Михаил Иванов
Язык : Russian
Default : Нет
Forced : Нет
Аудио #3
Идентификатор : 4
Формат : AC-3
Формат/Информация : Audio Coding 3
Расширение режима : CM (complete main)
Параметр Endianness формата : Big
Идентификатор кодека : A_AC3
Продолжительность : 1 ч. 48 м.
Вид битрейта : Постоянный
Битрейт : 448 Кбит/сек
Каналы : 6 каналов
Расположение каналов : Front: L C R, Side: L R, LFE
Частота : 48,0 КГц
Битовая глубина : 16 бит
Метод сжатия : С потерями
Размер потока : 346 Мбайт (11%)
Заголовок : Авторский Антон Карповский
Язык : Russian
Default : Нет
Forced : Нет
Аудио #4
Идентификатор : 5
Формат : AC-3
Формат/Информация : Audio Coding 3
Расширение режима : CM (complete main)
Параметр Endianness формата : Big
Идентификатор кодека : A_AC3
Продолжительность : 1 ч. 48 м.
Вид битрейта : Постоянный
Битрейт : 448 Кбит/сек
Каналы : 6 каналов
Расположение каналов : Front: L C R, Side: L R, LFE
Частота : 48,0 КГц
Битовая глубина : 16 бит
Метод сжатия : С потерями
Размер потока : 346 Мбайт (11%)
Заголовок : Оригинал (итальянский)
Язык : Italian
Default : Нет
Forced : Нет
Текст #1
Идентификатор : 6
Формат : UTF-8
Идентификатор кодека : S_TEXT/UTF8
Идентификатор кодека/Информация : UTF-8 Plain Text
Заголовок : русские на непродублированные места
Язык : Russian
Default : Да
Forced : Нет
Текст #2
Идентификатор : 7
Формат : UTF-8
Идентификатор кодека : S_TEXT/UTF8
Идентификатор кодека/Информация : UTF-8 Plain Text
Заголовок : русские полные
Язык : Russian
Default : Нет
Forced : Нет
Текст #3
Идентификатор : 8
Формат : UTF-8
Идентификатор кодека : S_TEXT/UTF8
Идентификатор кодека/Информация : UTF-8 Plain Text
Заголовок : английские
Язык : English
Default : Нет
Forced : Нет
Скриншоты: Время раздачи: 24/7 по возможности

[Цитировать]



Показать сообщения:    

Текущее время: 10-Дек 21:32

Часовой пояс: UTC + 3


Вы не можете начинать темы
Вы не можете отвечать на сообщения
Вы не можете редактировать свои сообщения
Вы не можете удалять свои сообщения
Вы не можете голосовать в опросах
Вы не можете прикреплять файлы к сообщениям
Вы не можете скачивать файлы

!ВНИМАНИЕ!
Сайт не предоставляет электронные версии произведений, а занимается лишь коллекционированием и каталогизацией ссылок, присылаемых и публикуемых на форуме нашими читателями. Если вы являетесь правообладателем какого-либо представленного материала и не желаете, чтобы ссылка на него находилась в нашем каталоге, свяжитесь с нами, и мы незамедлительно удалим ее. Файлы для обмена на трекере предоставлены пользователями сайта, и администрация не несет ответственности за их содержание. Просьба не заливать файлы, защищенные авторскими правами, а также файлы нелегального содержания!