[ Сегодня идет свободное скачивание без начисления Download ]


Статистика раздачи
Нет
 
   
 
Top  
 
 
-Джонни Мнемоник / Johnny Mnemonic (1995) BDRip- Русское название: Джонни Мнемоник
Оригинальное название: Johnny Mnemonic
Год выпуска: 1995
Страна: Канада, США
Слоган: «The hottest data on earth. In the coolest head in town.»
Жанр: Фантастика, боевик--Режиссер: Роберт Лонго
Актеры: Киану Ривз (Johnny Mnemonic), Дина Мейер (Jane), Айс-Ти (J-Bone), Такеши Китано (Takahashi), Деннис Акаяма (Shinji), Дольф Лундгрен (Street Preacher), Генри Роллинз (Spider), Барбара Зукова (Anna Kalmann), Удо Кир (Ralfi), Трейси Туид (Pretty), Фалконер Абрахам (Yomamma), Дон Фрэнкс (Hooky)-Описание фильма: В насквозь кибернетизированном будущем самый ценный товар - информация, доставляемая курьерами в самом надежном месте - в их собственном мозгу. Для того, чтобы преуспеть в этом бизнесе, Джонни «стер» воспоминания детства и расширил память сверхсовременных компьютерных приспособлений. Но и этого оказалось мало для информации, которую он взялся доставить. Если ее вовремя не сгрузить, то Джонни погибнет. Ставки велики, и информацию из головы (можно и с головой, но без Джонни) желает получить вездесущая японская мафия, подключающая к столь тонкому делу проповедника...- -Продолжительность: 01:36:40
Перевод: Многоголосый закадровый, двухголосый, авторский
Язык субтитров: Русские, английские
Вид субтитров: Отдельным файлом--Качество видео: BDRip
Видеокодек: XviD
Битрейт видео: ~1 938 Кбит/с
Размер кадра: 720x400
Аудио 1: Русский: AC3 5.1, 448 Кбит/с, 48 kHz - Двухголосый (EA Cinema)
Аудио 2: Русский: AC3 5.1, 448 Кбит/с, 48 kHz - Многоголосый
Аудио 3: Русский: AC3 5.1, 384 Кбит/с, 48 kHz - (Сергей Визгунов)-

MediaInfo:

General
Complete name : G:\Johnny.Mnemonic.1995.BDRip\Johnny.Mnemonic.1995.BDRip.avi
Format : AVI
Format/Info : Audio Video Interleave
Format profile : OpenDML
File size : 2.19 GiB
Duration : 1h 36mn
Overall bit rate : 3 242 Kbps
Writing application : VirtualDubMod 1.5.10.3 | www.virtualdub-fr.org || (build 2550/release)
Writing library : VirtualDubMod build 2550/release
Video
ID : 0
Format : MPEG-4 Visual
Format profile : Advanced Simple@L5
Format settings, BVOP : 1
Format settings, QPel : No
Format settings, GMC : No warppoints
Format settings, Matrix : Custom
Codec ID : XVID
Codec ID/Hint : XviD
Duration : 1h 36mn
Bit rate : 1 938 Kbps
Width : 720 pixels
Height : 400 pixels
Display aspect ratio : 16:9
Frame rate : 23.976 fps
Color space : YUV
Chroma subsampling : 4:2:0
Bit depth : 8 bits
Scan type : Progressive
Compression mode : Lossy
Bits/(Pixel*Frame) : 0.281
Stream size : 1.31 GiB (60%)
Writing library : XviD 63
Audio #1
ID : 1
Format : AC-3
Format/Info : Audio Coding 3
Mode extension : CM (complete main)
Format settings, Endianness : Big
Codec ID : 2000
Duration : 1h 36mn
Bit rate mode : Constant
Bit rate : 448 Kbps
Channel(s) : 6 channels
Channel positions : Front: L C R, Side: L R, LFE
Sampling rate : 48.0 KHz
Bit depth : 16 bits
Compression mode : Lossy
Stream size : 310 MiB (14%)
Alignment : Split accross interleaves
Interleave, duration : 42 ms (1.00 video frame)
Interleave, preload duration : 500 ms
Audio #2
ID : 2
Format : AC-3
Format/Info : Audio Coding 3
Mode extension : CM (complete main)
Format settings, Endianness : Big
Codec ID : 2000
Duration : 1h 36mn
Bit rate mode : Constant
Bit rate : 448 Kbps
Channel(s) : 6 channels
Channel positions : Front: L C R, Side: L R, LFE
Sampling rate : 48.0 KHz
Bit depth : 16 bits
Compression mode : Lossy
Stream size : 310 MiB (14%)
Alignment : Split accross interleaves
Interleave, duration : 42 ms (1.00 video frame)
Interleave, preload duration : 500 ms
Audio #3
ID : 3
Format : AC-3
Format/Info : Audio Coding 3
Mode extension : CM (complete main)
Format settings, Endianness : Big
Codec ID : 2000
Duration : 1h 36mn
Bit rate mode : Constant
Bit rate : 384 Kbps
Channel(s) : 6 channels
Channel positions : Front: L C R, Side: L R, LFE
Sampling rate : 48.0 KHz
Bit depth : 16 bits
Compression mode : Lossy
Stream size : 266 MiB (12%)
Alignment : Split accross interleaves
Interleave, duration : 42 ms (1.00 video frame)
Interleave, preload duration : 500 ms

Знаете ли Вы, что...

  • Первоначально на главные роли планировались Вэл Килмер и Джейн Марч.
  • Японская версия фильма длинее прокатной на семь минут.
  • На момент написания сценария (1993 год) планировалось сделать «Джонни Мнемоника» чёрно-белой картиной с бюджетом не больше миллиона долларов.
  • Картина находилась в пост-продакшене почти год.
  • Фильм был практически готов, когда на экраны вышла «Скорость» Яна де Бонта, в одночасье превратившая Киану Ривза в звезду жанра «экшен». Потому, боссы студии Sony приказали переснять часть сцен, добавить в фильм перестрелок и драк (изначально, фильм задумывался как ироничная смесь «нео-нуара» и «киберпанка» без каких-либо намёков на звание «блокбастера»), а также порядком «порезать» роль Дольфа Лундгрена, которую посчитали слишком «антирелигиозной».
  • Сценарист картины Уильям Гибсон утверждает, что снятый Робертом Лонго фильм и прокатная версия «Джонни Мнемоника» - это небо и земля. По его же словам, студия вырезала 90% роли Дольфа Лундгрена.
  • Фильм снят по одноименному рассказу Уильяма Гибсона.
  • Съемки фильма происходили в основном в Канаде (в Торонто и Монреале), но некоторые эпизоды снимались в небольшом американском городе Ньюарк (штат Нью-Джерси).
  • В одной из сцен, когда боевик якудза стреляет из противотанкового орудия, он держит его задом наперед. И вообще большая часть вооружения, показанная в фильме, является оружием для пейнтбола.
  • Композитор Майкл Дэнна написал музыку к японской версии фильма.
  • Полная версия фильма в Японии имела хронометраж 107 минут.
  • Телохранителя Джейн в рассказе нет вообще - Гибсон придумал ее специально для экранизации.
  • Объем информации, которую способен перевозить Джонни, всего 80 гигабайт; максимально возможный - 160 гигабайт.
  • Время потребовавшеесе на загрузку 320 Гб - 55 секунд, соответственно скорость загрузки 5,81 Гбсек или 46,5 Гигабитсек.
  • На момент выхода фильма (1995 год) ёмкость среднего жесткого диска составляла до 1 гигабайта, максимальная - 2 гигабайта.
-Скриншоты:
-Время раздачи: С 09:00 до 24:00

[Цитировать]



Показать сообщения:    

Текущее время: 11-Дек 11:06

Часовой пояс: UTC + 3


Вы не можете начинать темы
Вы не можете отвечать на сообщения
Вы не можете редактировать свои сообщения
Вы не можете удалять свои сообщения
Вы не можете голосовать в опросах
Вы не можете прикреплять файлы к сообщениям
Вы не можете скачивать файлы

!ВНИМАНИЕ!
Сайт не предоставляет электронные версии произведений, а занимается лишь коллекционированием и каталогизацией ссылок, присылаемых и публикуемых на форуме нашими читателями. Если вы являетесь правообладателем какого-либо представленного материала и не желаете, чтобы ссылка на него находилась в нашем каталоге, свяжитесь с нами, и мы незамедлительно удалим ее. Файлы для обмена на трекере предоставлены пользователями сайта, и администрация не несет ответственности за их содержание. Просьба не заливать файлы, защищенные авторскими правами, а также файлы нелегального содержания!