[ Сегодня идет свободное скачивание без начисления Download ]


Статистика раздачи
Нет
 
   
 
 
 
Информация о фильме
Название: Убей ради Меня
Оригинальное название: Kill for Me
Год выхода: 2013
Жанр: Триллер, Драма
Режиссер: Майкл Гринспен
В ролях: Кэти Кэссиди, Трэйси Спиридакос, Донал Лог, Райан Роббинс, Адам ДиМарко, Чела Хорсдэл, Торранс Кумбс, Леа Гибсон, Шеннон Чан-Кент, Колин Лоуренс
О фильме:
Две соседки по комнате планируют убийства людей из своего прошлого, чтобы помочь решить проблемы друг друга. Тем временем полиция занята расследованием похищения девушки. События казалось бы совсем разные, но тесно переплетаются друг с другом!

Страна: Канада
Продолжительность: 01:34:57
Перевод: Тип перевода (Субтитры)
Файл
Кодек: XviD
Качество: DVDRip-AVC
Видео: 624x336, 23 fps, ~809 Kbit/s
Звук: MP3, 48000 Hz, 2 каналов, 128 kbit/s
Субтитры:
Субтитры #1 Русские (NIFILIM STUDIO)
Субтитры #2 Английские (NIFILIM STUDIO)

MediaInfo:

Полное имя : Kill.for.Me.2013.DVDRip
Формат : Matroska
Версия формата : Version 2
Размер файла : 649 Мбайт
Продолжительность : 1 ч. 34 м.
Общий поток : 956 Кбит/сек
Дата кодирования : UTC 2013-02-14 00:48:41
Программа кодирования : mkvmerge v4.0.0 ('The Stars were mine') сборка от Jun 6 2010 16:18:42
Библиотека кодирования : libebml v1.0.0 + libmatroska v1.0.0
Видео
Идентификатор : 1
Формат : MPEG-4 Visual
Профиль формата : Simple@L3
Параметр BVOP формата : Нет
Параметр QPel формата : Нет
Параметр GMC формата : Без точки перехода
Параметр матрицы формата : Default (H.263)
Идентификатор кодека : V_MS/VFW/FOURCC / XVID
Идентификатор кодека/Подсказка : XviD
Продолжительность : 1 ч. 34 м.
Битрейт : 809 Кбит/сек
Ширина : 624 пикселя
Высота : 336 пикселей
Соотношение сторон : 1,85:1
Режим частоты кадров : Постоянный
Частота кадров : 23,976 кадра/сек
Цветовое пространство : YUV
Субдискретизация насыщенности : 4:2:0
Битовая глубина : 8 бит
Тип развёртки : Прогрессивная
Метод сжатия : С потерями
Бит/(Пиксели*Кадры) : 0.161
Размер потока : 549 Мбайт (85%)
Библиотека кодирования : XviD 1.1.2 (UTC 2006-11-01)
Default : Да
Forced : Нет
Аудио
Идентификатор : 2
Формат : MPEG Audio
Версия формата : Version 1
Профиль формата : Layer 3
Режим : Joint stereo
Расширение режима : MS Stereo
Идентификатор кодека : A_MPEG/L3
Идентификатор кодека/Подсказка : MP3
Продолжительность : 1 ч. 34 м.
Вид битрейта : Постоянный
Битрейт : 128 Кбит/сек
Каналы : 2 канала
Частота : 48,0 КГц
Метод сжатия : С потерями
Размер потока : 86,9 Мбайт (13%)
Библиотека кодирования : LAME3.98
Default : Да
Forced : Нет
Текст #1
Идентификатор : 3
Формат : UTF-8
Идентификатор кодека : S_TEXT/UTF8
Идентификатор кодека/Информация : UTF-8 Plain Text
Язык : Russian
Default : Да
Forced : Нет
Текст #2
Идентификатор : 4
Формат : UTF-8
Идентификатор кодека : S_TEXT/UTF8
Идентификатор кодека/Информация : UTF-8 Plain Text
Язык : English
Default : Нет
Forced : Нет

Скриншоты

[Цитировать]

Топик был перенесен из форума Триллер в форум На иностранном языке


AJIekSaNdRoVi4



Показать сообщения:    

Текущее время: 10-Дек 08:01

Часовой пояс: UTC + 3


Вы не можете начинать темы
Вы не можете отвечать на сообщения
Вы не можете редактировать свои сообщения
Вы не можете удалять свои сообщения
Вы не можете голосовать в опросах
Вы не можете прикреплять файлы к сообщениям
Вы не можете скачивать файлы

!ВНИМАНИЕ!
Сайт не предоставляет электронные версии произведений, а занимается лишь коллекционированием и каталогизацией ссылок, присылаемых и публикуемых на форуме нашими читателями. Если вы являетесь правообладателем какого-либо представленного материала и не желаете, чтобы ссылка на него находилась в нашем каталоге, свяжитесь с нами, и мы незамедлительно удалим ее. Файлы для обмена на трекере предоставлены пользователями сайта, и администрация не несет ответственности за их содержание. Просьба не заливать файлы, защищенные авторскими правами, а также файлы нелегального содержания!