[ Сегодня идет свободное скачивание без начисления Download ]


Статистика раздачи
Нет
 
   
 
Top  
 
 
-Руби Спаркс / Ruby Sparks (2012) HDRip«Невероятная история любви, ставшая реальностью»- Русское название: Руби Спаркс
Оригинальное название: Ruby Sparks
Год выпуска: 2012
Производство: США / Bona Fide Productions, Fox Searchlight Pictures
Жанр: Фэнтези, Мелодрама, Комедия
Перевод: Дублированный [Лицензия, R5]
Субтитры: Отсутствуют
Дата мировой премьеры: 25 июля 2012
Дата российской премьеры: 27 сентября 2012, «Двадцатый Век Фокс СНГ»
Дата выхода DVD релиза: 31 января 2013, «Двадцатый Век Фокс СНГ»
Режиссер: Джонатан Дэйтон, Валери Фэрис
Продюсер: Альберт Бергер, Рон Йеркса, Пол Дано
Актеры: Пол Дано, Зои Казан, Антонио Бандерас, Аннетт Бенинг, Стив Куган, Эллиот Гулд, Крис Мессина, Аасиф Мандви, Тони Тракс, Дебора Энн Уолл
Описание фильма:
Молодой, но уже успешный писатель переживает творческие и душевные муки: новый роман никак не выходит, музы все нет, да и вообще с девушками как-то не клеится. И вот, призвав на помощь остатки своей фантазии, Кэлвин придумывает себе девушку по имени Руби Спаркс — умницу, красавицу, спортсменку, короче говоря, идеал, а спустя неделю… обнаруживает этот идеал из плоти и крови на своем собственном диване. Уходить Руби явно не собирается, но вот кем она окажется — Галатеей или Белочкой?..

Рейтинг MPAA: R (лицам до 17 лет обязательно присутствие взрослого)
Российское возрастное ограничение: 16+ (зрителям, достигшим 16 лет)
Продолжительность: 01:44:06
Качество видео: HDRip
Видеокодек: XviD
Битрейт видео: ~861 Kbps
Размер кадра: 704x384
Аудиокодек: MP3 2.0
Битрейт аудио: 128 Kbit/s

MediaInfo

General
Complete name                  : Ruby.Sparks.2012.Dub.HDRip.avi
Format                         : AVI
Format/Info                    : Audio Video Interleave
File size                      : 743 MiB
Duration                       : 1h 44mn
Overall bit rate               : 998 Kbps
Writing application            : VirtualDubMod 1.5.10.2 (build 2540/release)
Writing library                : VirtualDubMod build 2540/release
Video
ID                             : 0
Format                         : MPEG-4 Visual
Format profile                 : Advanced Simple@L5
Format settings, BVOP          : 1
Format settings, QPel          : No
Format settings, GMC           : No warppoints
Format settings, Matrix        : Custom
Codec ID                       : XVID
Codec ID/Hint                  : XviD
Duration                       : 1h 44mn
Bit rate                       : 861 Kbps
Width                          : 624 pixels
Height                         : 336 pixels
Display aspect ratio           : 1.85:1
Frame rate                     : 23.976 fps
Color space                    : YUV
Chroma subsampling             : 4:2:0
Bit depth                      : 8 bits
Scan type                      : Progressive
Compression mode               : Lossy
Bits/(Pixel*Frame)             : 0.171
Stream size                    : 641 MiB (86%)
Writing library                : XviD 1.2.1 (UTC 2008-12-04)
Audio
ID                             : 1
Format                         : MPEG Audio
Format version                 : Version 1
Format profile                 : Layer 3
Codec ID                       : 55
Codec ID/Hint                  : MP3
Duration                       : 1h 44mn
Bit rate mode                  : Constant
Bit rate                       : 128 Kbps
Channel(s)                     : 2 channels
Sampling rate                  : 48.0 KHz
Compression mode               : Lossy
Stream size                    : 95.3 MiB (13%)
Alignment                      : Aligned on interleaves
Interleave, duration           : 42 ms (1.00 video frame)
Interleave, preload duration   : 504 ms
Writing library                : LAME3.97
Encoding settings              : -m s -V 4 -q 2 -lowpass 17 -b 128
Скриншоты:


Время раздачи: круглосуточно до 20 скачавших, далее по возможности

[Цитировать]



Показать сообщения:    

Текущее время: 11-Дек 08:59

Часовой пояс: UTC + 3


Вы не можете начинать темы
Вы не можете отвечать на сообщения
Вы не можете редактировать свои сообщения
Вы не можете удалять свои сообщения
Вы не можете голосовать в опросах
Вы не можете прикреплять файлы к сообщениям
Вы не можете скачивать файлы

!ВНИМАНИЕ!
Сайт не предоставляет электронные версии произведений, а занимается лишь коллекционированием и каталогизацией ссылок, присылаемых и публикуемых на форуме нашими читателями. Если вы являетесь правообладателем какого-либо представленного материала и не желаете, чтобы ссылка на него находилась в нашем каталоге, свяжитесь с нами, и мы незамедлительно удалим ее. Файлы для обмена на трекере предоставлены пользователями сайта, и администрация не несет ответственности за их содержание. Просьба не заливать файлы, защищенные авторскими правами, а также файлы нелегального содержания!