[ Сегодня идет свободное скачивание без начисления Download ]


Статистика раздачи
Нет
 
   
 
Top  
 
 
-Шесть дней, семь ночей / Six Days Seven Nights (1998) DVDRip
«After this week in paradise, they're going to need a vacation.»
- Русское название: Шесть дней, семь ночей
Оригинальное название: Six Days Seven Nights
Год выпуска: 1998
Жанр: Боевик, Мелодрама, Комедия, Приключения
Описание фильма:
Небольшой самолет терпит катастрофу на необитаемом острове. Отважный летчик и его очаровательная пассажирка оказались совершенно одни среди дикой природы. Они отчаянно пытаются сообщить о себе, но не знают, что их уже давно перестали искать. Наконец, впервые за эти дни на пустынном горизонте показался странный корабль, который причалил к затерянному острову.
Но вместо того, чтобы улыбнуться невезучей парочке, судьба снова посмеялась над ними. Вооруженные до зубов пираты так не похожи на долгожданных спасителей! Пилот и его спутница так стремились оказаться в веселой компании. Теперь они хотят снова остаться наедине...
Режиссер: Айвен Райтман
Актеры: Харрисон Форд, Энн Хеч, Дэвид Швиммер, Жаклин Обрадорс, Темуера Моррисон, Эллисон Джэнни, Даглас Уэстон, Клифф Кертис, Дэнни Трехо
Продолжительность: 01:37:47
Перевод: Многоголосый закадровый профессиональный
Автор перевода: Телеканал ОРТ
Субтитры: Отсутствуют

Рейтинг MPAA: PG-13 (детям до 13 лет просмотр не желателен)
Российское возрастное ограничение: 16+ (зрителям, достигшим 16 лет)
Дата мировой премьеры: 12 июня 1998
Дата выхода DVD релиза: 29 июня 2010, «Уолт Дисней Компани СНГ»
Видеокодек: XviD
Битрейт видео: ~1928 kbps
Размер кадра: 704x288
Качество видео: DVDRip
Аудиокодек: MP3 2.0
Битрейт аудио: ~192 kbps

MediaInfo

General
Complete name                  : Shest.dney.sem.nochey.1998.MVO.DVDRip.avi
Format                         : AVI
Format/Info                    : Audio Video Interleave
File size                      : 1.45 GiB
Duration                       : 1h 37mn
Overall bit rate               : 2 130 Kbps
Writing application            : VirtualDubModRus 1.5.10.2 (build 2542/release)
Writing library                : VirtualDubMod build 2542/release
Video
ID                             : 0
Format                         : MPEG-4 Visual
Format profile                 : Advanced Simple@L5
Format settings, BVOP          : 1
Format settings, QPel          : No
Format settings, GMC           : No warppoints
Format settings, Matrix        : Custom
Codec ID                       : XVID
Codec ID/Hint                  : XviD
Duration                       : 1h 37mn
Bit rate                       : 1 928 Kbps
Width                          : 704 pixels
Height                         : 288 pixels
Display aspect ratio           : 2.40:1
Frame rate                     : 25.000 fps
Color space                    : YUV
Chroma subsampling             : 4:2:0
Bit depth                      : 8 bits
Scan type                      : Progressive
Compression mode               : Lossy
Bits/(Pixel*Frame)             : 0.380
Stream size                    : 1.32 GiB (91%)
Writing library                : XviD 65
Audio
ID                             : 1
Format                         : MPEG Audio
Format version                 : Version 1
Format profile                 : Layer 3
Mode                           : Joint stereo
Mode extension                 : MS Stereo
Codec ID                       : 55
Codec ID/Hint                  : MP3
Duration                       : 1h 37mn
Bit rate mode                  : Constant
Bit rate                       : 192 Kbps
Channel(s)                     : 2 channels
Sampling rate                  : 44.1 KHz
Compression mode               : Lossy
Stream size                    : 134 MiB (9%)
Alignment                      : Split accross interleaves
Interleave, duration           : 40 ms (1.00 video frame)
Interleave, preload duration   : 500 ms
Скриншоты:


Время раздачи: С 19:00 до 23:59 до 20 скачавших, далее по возможности
-Все раздачи фильма «Шесть дней, семь ночей (1998)» на трекере NNM-Club.ru

[Цитировать]



Показать сообщения:    

Текущее время: 29-Апр 07:48

Часовой пояс: UTC + 6


Вы не можете начинать темы
Вы не можете отвечать на сообщения
Вы не можете редактировать свои сообщения
Вы не можете удалять свои сообщения
Вы не можете голосовать в опросах
Вы не можете прикреплять файлы к сообщениям
Вы не можете скачивать файлы

!ВНИМАНИЕ!
Сайт не предоставляет электронные версии произведений, а занимается лишь коллекционированием и каталогизацией ссылок, присылаемых и публикуемых на форуме нашими читателями. Если вы являетесь правообладателем какого-либо представленного материала и не желаете, чтобы ссылка на него находилась в нашем каталоге, свяжитесь с нами, и мы незамедлительно удалим ее. Файлы для обмена на трекере предоставлены пользователями сайта, и администрация не несет ответственности за их содержание. Просьба не заливать файлы, защищенные авторскими правами, а также файлы нелегального содержания!