[ Сегодня идет свободное скачивание без начисления Download ]


Статистика раздачи
Нет
 
   
 
Top  
 
 
-Лорд Вор / The Thief Lord (2006) BDRip Русское название: Лорд Вор
Оригинальное название: The Thief Lord
Год выпуска: 2006
Жанр: Фэнтези, Приключения, Семейный
Описание фильма: После смерти матери, два брата Боу и Поп сбегают от своей злобной тетки, которая хочет разлучить их, в Венецию — город, который очень любила их покойная мама.
Здесь братья знакомятся с большой компанией беспризорников под предводительством лихого парня по прозвищу Лорд-Вор, который вовлекает новичков в заманчивую и опасную жизнь, скрывающуюся за прекрасными фасадами старинных венецианских особняков. Братьев ждут невероятные приключения, неразрешимые загадки и страшные тайны, и, конечно же, новые друзья…
Режиссер: Ричард Клаус
Актеры: Аарон Тейлор-Джонсон, Джаспер Харрис, Кэрол Бойд, Боб Гуди, Джим Картер, Малкольм Тернер, Ролло Викс, Джордж МакКэй, Элис Коннор, Латаниэль Дайер
Продолжительность: 01:38:38
Перевод: Многоголосый закадровый

Дата мировой премьеры: 5 января 2006
Видеокодек: Xvid
Битрейт видео: ~1702 kbps
Размер кадра: 720x304
Качество видео: BDRip
Аудиокодек: AC3 5.1
Битрейт аудио: 384 kbps
&

MediaInfo

Общее
Полное имя : D:\HD\The Thief Lord.2006.BDRip.avi
Формат : AVI
Формат/Информация : Audio Video Interleave
Размер файла : 1,44 Гбайт
Продолжительность : 1 ч. 38 м.
Общий поток : 2095 Кбит/сек
Программа кодирования : VirtualDubMod 1.5.10.3 (build 2550/release)
Библиотека кодирования : VirtualDubMod build 2550/release
Правообладатель : rip by Rulya74
Видео
Идентификатор : 0
Формат : MPEG-4 Visual
Профиль формата : Advanced [email protected]
Параметр BVOP формата : 3
Параметр QPel формата : Нет
Параметр GMC формата : Без точки перехода
Параметр матрицы формата : Default (H.263)
Режим смешивания : Сжатый битовый поток
Идентификатор кодека : XVID
Идентификатор кодека/Подсказка : XviD
Продолжительность : 1 ч. 38 м.
Битрейт : 1702 Кбит/сек
Ширина : 720 пикселей
Высота : 304 пикселя
Соотношение сторон : 2,35:1
Частота кадров : 23,976 кадра/сек
Цветовое пространство : YUV
Субдискретизация насыщенности : 4:2:0
Битовая глубина : 8 бит
Тип развёртки : Прогрессивная
Метод сжатия : С потерями
Бит/(Пиксели*Кадры) : 0.324
Размер потока : 1,17 Гбайт (81%)
Библиотека кодирования : XviD 65
Аудио
Идентификатор : 1
Формат : AC-3
Формат/Информация : Audio Coding 3
Расширение режима : CM (complete main)
Параметр Endianness формата : Big
Идентификатор кодека : 2000
Продолжительность : 1 ч. 38 м.
Вид битрейта : Постоянный
Битрейт : 384 Кбит/сек
Каналы : 6 каналов
Расположение каналов : Front: L C R, Side: L R, LFE
Частота : 48,0 КГц
Битовая глубина : 16 бит
Метод сжатия : С потерями
Размер потока : 271 Мбайт (18%)
Выравнивание : Разделение по промежуткам
Продолжительность промежутка : 42 мс. (1,00 видеокадр)
Время предзагрузки промежутка : 500 мс.
Заголовок : Профессиональный (многоголосый закадровый)
Скриншоты:

Время раздачи: с 8:00 до 23:00

[Цитировать]



Показать сообщения:    

Текущее время: 05-Дек 11:34

Часовой пояс: UTC + 3


Вы не можете начинать темы
Вы не можете отвечать на сообщения
Вы не можете редактировать свои сообщения
Вы не можете удалять свои сообщения
Вы не можете голосовать в опросах
Вы не можете прикреплять файлы к сообщениям
Вы не можете скачивать файлы

!ВНИМАНИЕ!
Сайт не предоставляет электронные версии произведений, а занимается лишь коллекционированием и каталогизацией ссылок, присылаемых и публикуемых на форуме нашими читателями. Если вы являетесь правообладателем какого-либо представленного материала и не желаете, чтобы ссылка на него находилась в нашем каталоге, свяжитесь с нами, и мы незамедлительно удалим ее. Файлы для обмена на трекере предоставлены пользователями сайта, и администрация не несет ответственности за их содержание. Просьба не заливать файлы, защищенные авторскими правами, а также файлы нелегального содержания!