[ Сегодня идет свободное скачивание без начисления Download ]


Статистика раздачи
Нет
 
   
 
Top  
 
 
-Малена / Malena (2000) BDRip-«Она была слишком красива, а он был слишком молод, чтобы защитить ее»- Русское название: Малена
Оригинальное название: Malena
Год выпуска: 2000
Производство: США, Италия, Medusa Produzione, Miramax Films, Pacific Pictures
Жанр: Драма, мелодрама, военный
Перевод: Дублированный, Авторский (одноголосый, закадровый) Михаил Иванов, Авторский (одноголосый, закадровый) Анатолий Карповский
Субтитры: Отдельным файлом (SRT)
Язык субтитров: Русский (полный), русский (на непродублированные места), английский (полный)
Дата мировой премьеры: 27 октября 2000
Дата выхода DVD релиза: 9 апреля 2009, «Мьюзик-Трейд»
Режиссер: Джузеппе Торнаторе
Продюсер: Карло Бернаскони, Марио Котоне, Фабрицио Ломбардо
Актеры: Моника Беллуччи, Джузеппе Сульфаро, Лючано Федерико, Матильде Пьяна, Пьетро Нотарианни, Гаэтано Ароника, Джилберто Идонеа, Анджело Пеллегрино, Габриэлла Ди Лузио, Пиппо Проввиденти
Описание фильма:
Малена — красавица-вдова, наваждение мужчин и предмет зависти женщин. Жены распускают о ней грязные сплетни. Мужья преследуют ее по пятам и грезят о ней.
«Мне было 13, когда я увидел ее впервые. Прошло время, я любил многих женщин, и когда мы были близки, они спрашивали: буду ли я помнить их? И я говорил: да, я буду помнить вас. Но единственная, кого я никогда не забуду — та, которая никогда не спрашивала. Малена».

Рейтинг R - Детям до 17 лет обязательно присутствие родителей
Возраст 17+ - Зрителям, достигшим 17 лет
Продолжительность: 01:48:04
Качество видео: BDRip
Видеокодек: XviD
Битрейт видео: 1983 Кбит/с
Размер кадра: 720x304
Аудио 1: Русский: (AC3, 6 ch, 448 Кбит/c) - Дублированный
Аудио 2: Русский: (AC3, 6 ch, 384 Кбит/c) - Закадровый (одноголосый, Михаил Иванов) - (отдельным файлом)
Аудио 3: Русский: (AC3, 6 ch, 448 Кбит/c) - Закадровый (одноголосый, Анатолий Карповский) - (отдельным файлом)
Аудио 4: Итальянский: (AC3, 6 ch, 448 Кбит/c) - Оригинал

Награды

Оскар, 2001 год
Номинации (2):
- Лучшая работа оператора
- Лучший оригинальный саундтрек
Золотой глобус, 2001 год
Номинации (2):
- Лучший саундтрек
- Лучший фильм на иностранном языке — «Италия»
Британская академия, 2001 год
Номинации (1):
- Лучший фильм на иностранном языке
Берлинский кинофестиваль, 2001 год
Номинации (1):
- Золотой Медведь
Европейская киноакадемия, 2001 год
Номинации (2):
- Приз зрительских симпатий за лучшую женскую роль (Моника Беллуччи)
- Приз зрительских симпатий за лучшую работу режиссера (Джузеппе Торнаторе)

Знаете ли вы, что...

Версия для Соединенных Штатов была сильно урезана. В основном, урезанные сцены изображали мечты главного героя-подростка, в которых он занимался любовью с Маленой. Из эротичных сцен была оставлена только та, где мальчик посещает бордель, и ложится в кровать с проституткой, внешне похожей на Малену.

Из книги «3500 кинорецензий»

Данная работа 44-летнего Джузеппе Торнаторе больше всего напоминает его самую лучшую ленту — «Новый кинотеатр «Парадизо» (1988), несколько уступая ей в пронзительности чувств и непреодолимой ностальгии по ушедшим временам. Кстати, вместе с предыдущей картиной этого итальянского режиссёра — историко-романтической фантазией «Легенда об океанском пианисте» (1999), названные произведения образуют своеобразную трилогию о безвозвратном минувшем, которое обречено остаться лишь в благодарной памяти ещё живущих на этом свете, хотя за далью лет оно действительно начинает напоминать выдуманные легенды или кинематографические иллюзии.
Одним из остроумных ходов «Малены» является как раз то, что тринадцатилетний Ренато в своих мечтах представляет себя рядом с местной красавицей Маленой в неких старых фильмах, типа «Тарзана» или «Дилижанса». А другая несомненная отсылка — к сатирическим сицилийским комедиям Пьетро Джерми «Соблазнённая и покинутая» и «Дамы и господа», в создании которых принимал участие сценарист Лючано Винченцони, чей во многом автобиографический рассказ использован в «Малене». Возможно, эта лента не выдержана целиком в необходимом настроении дорогого до слёз воспоминания, но благородный финал, сопровождённый особенно трогательными музыкальными пассажами Эннио Морриконе, искупает излишние претензии.
Сергей Кудрявцев

MediaInfo

Общее
Полное имя : E:\Malena.2000.BDRip\Malena.2000.XviD.BDRip.avi
Формат : AVI
Формат/Информация : Audio Video Interleave
Профиль формата : OpenDML
Размер файла : 2,19 Гбайт
Продолжительность : 1 ч. 48 м.
Общий поток : 2896 Кбит/сек
Название фильма : Malena.2000.XviD.BDRip.avi
Программа кодирования : VirtualDubMod 1.5.10.3 | www.virtualdub-fr.org || (build 2550/release)
Видео
Идентификатор : 0
Формат : MPEG-4 Visual
Профиль формата : Advanced Simple@L5
Параметр BVOP формата : 2
Параметр QPel формата : Нет
Параметр GMC формата : Без точки перехода
Параметр матрицы формата : Default (MPEG)
Режим смешивания : Сжатый битовый поток
Идентификатор кодека : XVID
Идентификатор кодека/Подсказка : XviD
Продолжительность : 1 ч. 48 м.
Битрейт : 1983 Кбит/сек
Ширина : 720 пикселей
Высота : 304 пикселя
Соотношение сторон : 2,35:1
Частота кадров : 23,976 кадра/сек
Цветовое пространство : YUV
Субдискретизация насыщенности : 4:2:0
Битовая глубина : 8 бит
Тип развёртки : Прогрессивная
Метод сжатия : С потерями
Бит/(Пиксели*Кадры) : 0.378
Размер потока : 1,50 Гбайт (68%)
Библиотека кодирования : XviD 1.2.1 (UTC 2008-12-04)
Аудио #1
Идентификатор : 1
Формат : AC-3
Формат/Информация : Audio Coding 3
Расширение режима : CM (complete main)
Параметр Endianness формата : Big
Идентификатор кодека : 2000
Продолжительность : 1 ч. 48 м.
Вид битрейта : Постоянный
Битрейт : 448 Кбит/сек
Каналы : 6 каналов
Расположение каналов : Front: L C R, Side: L R, LFE
Частота : 48,0 КГц
Битовая глубина : 16 бит
Метод сжатия : С потерями
Размер потока : 346 Мбайт (15%)
Выравнивание : Разделение по промежуткам
Продолжительность промежутка : 42 мс. (1,00 видеокадр)
Время предзагрузки промежутка : 500 мс.
Аудио #2
Идентификатор : 2
Формат : AC-3
Формат/Информация : Audio Coding 3
Расширение режима : CM (complete main)
Параметр Endianness формата : Big
Идентификатор кодека : 2000
Продолжительность : 1 ч. 48 м.
Вид битрейта : Постоянный
Битрейт : 448 Кбит/сек
Каналы : 6 каналов
Расположение каналов : Front: L C R, Side: L R, LFE
Частота : 48,0 КГц
Битовая глубина : 16 бит
Метод сжатия : С потерями
Размер потока : 346 Мбайт (15%)
Выравнивание : Разделение по промежуткам
Продолжительность промежутка : 42 мс. (1,00 видеокадр)
Время предзагрузки промежутка : 500 мс.
Скриншоты:
Время раздачи: 24/7 по возможности

[Цитировать]



Показать сообщения:    

Текущее время: 11-Дек 07:16

Часовой пояс: UTC + 3


Вы не можете начинать темы
Вы не можете отвечать на сообщения
Вы не можете редактировать свои сообщения
Вы не можете удалять свои сообщения
Вы не можете голосовать в опросах
Вы не можете прикреплять файлы к сообщениям
Вы не можете скачивать файлы

!ВНИМАНИЕ!
Сайт не предоставляет электронные версии произведений, а занимается лишь коллекционированием и каталогизацией ссылок, присылаемых и публикуемых на форуме нашими читателями. Если вы являетесь правообладателем какого-либо представленного материала и не желаете, чтобы ссылка на него находилась в нашем каталоге, свяжитесь с нами, и мы незамедлительно удалим ее. Файлы для обмена на трекере предоставлены пользователями сайта, и администрация не несет ответственности за их содержание. Просьба не заливать файлы, защищенные авторскими правами, а также файлы нелегального содержания!