[ Сегодня идет свободное скачивание без начисления Download ]


Статистика раздачи
Нет
 
   
 
Top  
 
 
-Тупик / El Callejon (2011) DVDRip- Русское название: Тупик
Оригинальное название: El Callejon
Год выпуска: 2011
Страна: Испания, Колумбия
Жанр: Ужасы, Боевик, Триллер-Описание фильма:
Героиня фильма оказывается в ловушке в прачечной, расположенной в самом конце улицы. В ловушке устроенной ей серийным убийцей. Ей предстоит пережить несколько часов нападок со стороны не только маньяка, но и крыс, в изобилии там водящихся.-Режиссер: Антонио Трасхоррас
Актеры: Ана де Армас, Леонор Варела, Джефф Гам, Диего Кадавид-Продолжительность: 01:16:08
Перевод: Одноголосый закадровый [den904]- -Дата мировой премьеры: 14 октября 2011-Видеокодек: Xvid
Битрейт видео: ~1115 kb/s
Размер кадра: 640x336
Качество видео: DVDRip
Аудиокодек: MP3 (2 ch)
Битрейт аудио: 128 kb/s

MediaInfo

Общее
Полное имя : D:\Торрент раздача\Tupick.2012.L1.DVDRip.avi
Формат : AVI
Формат/Информация : Audio Video Interleave
Размер файла : 682 Мбайт
Продолжительность : 1 ч. 16 м.
Общий поток : 1252 Кбит/сек
Программа кодирования : VirtualDubMod 1.5.10.2 (build 2542/release)
Библиотека кодирования : VirtualDubMod build 2542/release
Видео
Идентификатор : 0
Формат : MPEG-4 Visual
Профиль формата : Advanced Simple@L5
Параметр BVOP формата : 2
Параметр QPel формата : Нет
Параметр GMC формата : Без точки перехода
Параметр матрицы формата : Default (H.263)
Режим смешивания : Сжатый битовый поток
Идентификатор кодека : XVID
Идентификатор кодека/Подсказка : XviD
Продолжительность : 1 ч. 16 м.
Битрейт : 1115 Кбит/сек
Ширина : 640 пикселей
Высота : 336 пикселей
Соотношение сторон : 1,905
Частота кадров : 23,976 кадра/сек
Цветовое пространство : YUV
Субдискретизация насыщенности : 4:2:0
Битовая глубина : 8 бит
Тип развёртки : Прогрессивная
Метод сжатия : С потерями
Бит/(Пиксели*Кадры) : 0.216
Размер потока : 607 Мбайт (89%)
Библиотека кодирования : XviD 64
Аудио
Идентификатор : 1
Формат : MPEG Audio
Версия формата : Version 1
Профиль формата : Layer 3
Режим : Joint stereo
Расширение режима : MS Stereo
Идентификатор кодека : 55
Идентификатор кодека/Подсказка : MP3
Продолжительность : 1 ч. 15 м.
Вид битрейта : Постоянный
Битрейт : 128 Кбит/сек
Каналы : 2 канала
Частота : 48,0 КГц
Метод сжатия : С потерями
Размер потока : 69,6 Мбайт (10%)
Выравнивание : Разделение по промежуткам
Продолжительность промежутка : 42 мс. (1,00 видеокадр)
Время предзагрузки промежутка : 500 мс.
Скриншоты:
Время раздачи: 24/7

[Цитировать]



Показать сообщения:    

Текущее время: 11-Дек 11:07

Часовой пояс: UTC + 3


Вы не можете начинать темы
Вы не можете отвечать на сообщения
Вы не можете редактировать свои сообщения
Вы не можете удалять свои сообщения
Вы не можете голосовать в опросах
Вы не можете прикреплять файлы к сообщениям
Вы не можете скачивать файлы

!ВНИМАНИЕ!
Сайт не предоставляет электронные версии произведений, а занимается лишь коллекционированием и каталогизацией ссылок, присылаемых и публикуемых на форуме нашими читателями. Если вы являетесь правообладателем какого-либо представленного материала и не желаете, чтобы ссылка на него находилась в нашем каталоге, свяжитесь с нами, и мы незамедлительно удалим ее. Файлы для обмена на трекере предоставлены пользователями сайта, и администрация не несет ответственности за их содержание. Просьба не заливать файлы, защищенные авторскими правами, а также файлы нелегального содержания!