[ Сегодня идет свободное скачивание без начисления Download ]


Статистика раздачи
Нет
 
   
 
Top  
 
 
-Пегги Сью вышла замуж / Peggy Sue Got Married (1986) HDTVRip- Русское название: Пегги Сью вышла замуж
Оригинальное название: Peggy Sue Got Married
Год выпуска: 1986
Жанр: Фэнтези, Драма, Мелодрама, Комедия, Музыка
Описание фильма:
Иногда очень хочется прожить жизнь заново. Во всяком случае — кое-что подправить. У Пегги Сью всё хорошо — есть милые дети, есть работа. Вот только брак трещит по швам. Сразу после развода Пегги отправляется на бал выпускников школы, где ее с восторгом выбирают королевой.
Это дает ей шанс вернуться в конец 1950-х, когда «Бич Бойз» пели песенку «Красотка Пегги Сью», а жизнь казалась такой безоблачной. Вновь очутившись на заре прекрасной юности, Пегги встречает своих родителей, а самое главное — юного Чарли. И понимает, что все было не напрасно…
Режиссер: Френсис Форд Коппола
Актеры: Кэтлин Тёрнер, Николас Кейдж, Бэрри Миллер, Кэтрин Хикс, Джоан Аллен, Кевин Дж. О’Коннор, Джим Керри, Лиза Джейн Перски, Люсинда Дженни, Уил Шрайнер
Продолжительность: 01:36:56
Перевод: Многоголосый закадровый профессиональный
Автор перевода: Первый Канал HD
Субтитры: Отсутствуют

Дата мировой премьеры: 5 октября 1986
Видеокодек: DivX 5
Битрейт видео: ~1953 Kbps
Размер кадра: 720x400
Качество видео: HDTVRip
Аудиокодек: MP3 2.0
Битрейт аудио: 192 Kbps

MediaInfo

General
Complete name                  : Peggy.Sue.Got.Married.1986.HDTVRip.avi
Format                         : AVI
Format/Info                    : Audio Video Interleave
File size                      : 1.46 GiB
Duration                       : 1h 36mn
Overall bit rate               : 2 155 Kbps
Movie name                     : Пегги Сью вышла замуж
Writing application            : VirtualDubMod 1.5.10.3 | [url=http://www.virtualdub-fr.org]www.virtualdub-fr.org[/url] || (build 2550/release)
Copyright                      : Edich2
Video
ID                             : 0
Format                         : MPEG-4 Visual
Format profile                 : Advanced Simple@L5
Format settings, BVOP          : 2
Format settings, QPel          : No
Format settings, GMC           : No warppoints
Format settings, Matrix        : Default (MPEG)
Codec ID                       : DX50
Codec ID/Hint                  : DivX 5
Duration                       : 1h 36mn
Bit rate                       : 1 953 Kbps
Width                          : 720 pixels
Height                         : 400 pixels
Display aspect ratio           : 16:9
Frame rate                     : 25.000 fps
Color space                    : YUV
Chroma subsampling             : 4:2:0
Bit depth                      : 8 bits
Scan type                      : Progressive
Compression mode               : Lossy
Bits/(Pixel*Frame)             : 0.271
Stream size                    : 1.32 GiB (91%)
Writing library                : XviD 1.2.1 (UTC 2008-12-04)
Audio
ID                             : 1
Format                         : MPEG Audio
Format version                 : Version 1
Format profile                 : Layer 3
Codec ID                       : 55
Codec ID/Hint                  : MP3
Duration                       : 1h 36mn
Bit rate mode                  : Constant
Bit rate                       : 192 Kbps
Channel(s)                     : 2 channels
Sampling rate                  : 48.0 KHz
Compression mode               : Lossy
Stream size                    : 133 MiB (9%)
Alignment                      : Aligned on interleaves
Interleave, duration           : 40 ms (1.00 video frame)
Interleave, preload duration   : 504 ms
Writing library                : LAME3.99r
Encoding settings              : -m s -V 4 -q 2 -lowpass 18.6 -b 192
Скриншоты:

/d47b00c2662672267ccc8ad8f82795db.png" class="postLink" rel="nofollow">
Время раздачи: С 8:00 до 23:59 по МСК до 20 скачавших, далее по возможности
-Все раздачи фильма «Пегги Сью вышла замуж (1986)» на трекере NNM-Club.ru

[Цитировать]

Топик был перенесен из форума Фэнтези в форум Архив
D-r Woland_kz



Показать сообщения:    

Текущее время: 24-Июн 11:29

Часовой пояс: UTC + 6


Вы не можете начинать темы
Вы не можете отвечать на сообщения
Вы не можете редактировать свои сообщения
Вы не можете удалять свои сообщения
Вы не можете голосовать в опросах
Вы не можете прикреплять файлы к сообщениям
Вы не можете скачивать файлы

!ВНИМАНИЕ!
Сайт не предоставляет электронные версии произведений, а занимается лишь коллекционированием и каталогизацией ссылок, присылаемых и публикуемых на форуме нашими читателями. Если вы являетесь правообладателем какого-либо представленного материала и не желаете, чтобы ссылка на него находилась в нашем каталоге, свяжитесь с нами, и мы незамедлительно удалим ее. Файлы для обмена на трекере предоставлены пользователями сайта, и администрация не несет ответственности за их содержание. Просьба не заливать файлы, защищенные авторскими правами, а также файлы нелегального содержания!