[ Сегодня идет свободное скачивание без начисления Download ]


Статистика раздачи
Нет
 
   
 
Top  
 
 
-Короли рулетки / The Pelayos (2012) HDRip-«Они сумели схватить удачу за хвост, остаться в живых и при деньгах. Они - клан Пелайос»- Русское название: Короли рулетки
Оригинальное название: The Pelayos
Год выпуска: 2012
Производство: Испания | Afrodita Audiovisual, A.I.E., Alea Docs & Films, Bausan Films
Жанр: Боевик, Драма
Перевод: Многоголосый закадровый, профессиональный [лицензия]
Субтитры: Отсутствуют
Релиз группа: -Дата мировой премьеры: 21 апреля 2012
Дата российской премьеры: 13 сентября 2012, «Cinema Prestige»-Режиссер: Эдуард Кортес
Продюсер: Хавьер Арес, Густаво Феррада, Дэниэл Хернандез
Актеры: Даниэль Брюль, Соня Касадемонт, Чи Чуй, Эдуард Фернандес, Льюис Омар, Ферран Лаоз, Рачель Ласкар, Мика Луна, Винсент Ромеро, Марина Салас-Описание фильма:
Авантюрная история, снятая по мотивам реальных событий, рассказывает о клане Пелайо. Члены этой Семьи — большие мастера рулетки и карт честным путем обыгрывали казино по всему миру. Благодаря своим незаурядным талантам, они заработали много денег и даже «увековечились» в названии школы покера.- -Продолжительность: 01:37:13
Качество видео: HDRip-Видеокодек: MPEG-4 AVC/H.264
Битрейт видео: ~ 2671 Кбит/сек
Размер кадра: 1024x426
Аудиокодек: AC3 2.0
Битрейт аудио: 192 Кбит/сек

MediaInfo:

Общее
Уникальный идентификатор : 231123062084371479369462867894874047334 (0xADE0AEBF92C1D8778741E26BAB6A8366)
Полное имя : D:\Торрент раздача\Koroli.ruletki.2012.x264.HDRip.(AVC).ExKinoRay.mkv
Формат : Matroska
Версия формата : Version 2
Размер файла : 1,94 Гбайт
Продолжительность : 1 ч. 37 м.
Общий поток : 2861 Кбит/сек
Название фильма : Koroli.ruletki.2012.x264.HDRip
Дата кодирования : UTC 2013-02-02 14:18:46
Программа кодирования : mkvmerge v4.0.0 ('The Stars were mine') сборка от Jun 6 2010 16:18:42
Библиотека кодирования : libebml v1.0.0 + libmatroska v1.0.0
Видео
Идентификатор : 1
Формат : AVC
Формат/Информация : Advanced Video Codec
Профиль формата : [email protected]
Параметр CABAC формата : Да
Параметр ReFrames формата : 8 кадров
Идентификатор кодека : V_MPEG4/ISO/AVC
Продолжительность : 1 ч. 37 м.
Битрейт : 2671 Кбит/сек
Ширина : 1024 пикселя
Высота : 426 пикселей
Соотношение сторон : 2,40:1
Режим частоты кадров : Постоянный
Частота кадров : 25,000 кадров/сек
Цветовое пространство : YUV
Субдискретизация насыщенности : 4:2:0
Битовая глубина : 8 бит
Тип развёртки : Прогрессивная
Бит/(Пиксели*Кадры) : 0.245
Размер потока : 1,77 Гбайт (91%)
Заголовок : Rip by Enigma-Vladislav71
Библиотека кодирования : x264 core 92 r1510 33d382a
Настройки программы : cabac=1 / ref=8 / deblock=1:-2:-2 / analyse=0x3:0x133 / me=umh / subme=10 / psy=1 / psy_rd=1.00:0.00 / mixed_ref=1 / me_range=48 / chroma_me=1 / trellis=2 / 8x8dct=1 / cqm=0 / deadzone=21,11 / fast_pskip=0 / chroma_qp_offset=-2 / threads=3 / sliced_threads=0 / nr=0 / decimate=0 / interlaced=0 / constrained_intra=0 / bframes=8 / b_pyramid=2 / b_adapt=2 / b_bias=0 / direct=3 / wpredb=1 / wpredp=2 / keyint=250 / keyint_min=25 / scenecut=40 / intra_refresh=0 / rc=2pass / mbtree=0 / bitrate=2671 / ratetol=1.0 / qcomp=0.60 / qpmin=10 / qpmax=51 / qpstep=4 / cplxblur=20.0 / qblur=0.5 / ip_ratio=1.40 / pb_ratio=1.30 / aq=1:1.00
Язык : Russian
Default : Да
Forced : Нет
Аудио
Идентификатор : 2
Формат : AC-3
Формат/Информация : Audio Coding 3
Расширение режима : CM (complete main)
Параметр Endianness формата : Big
Идентификатор кодека : A_AC3
Продолжительность : 1 ч. 37 м.
Вид битрейта : Постоянный
Битрейт : 192 Кбит/сек
Каналы : 2 канала
Расположение каналов : Front: L R
Частота : 48,0 КГц
Битовая глубина : 16 бит
Метод сжатия : С потерями
Размер потока : 134 Мбайт (7%)
Язык : Russian
Default : Да
Forced : Нет
Скриншоты:
Время раздачи: 24/7

[Цитировать]



Показать сообщения:    

Текущее время: 06-Дек 17:14

Часовой пояс: UTC + 3


Вы не можете начинать темы
Вы не можете отвечать на сообщения
Вы не можете редактировать свои сообщения
Вы не можете удалять свои сообщения
Вы не можете голосовать в опросах
Вы не можете прикреплять файлы к сообщениям
Вы не можете скачивать файлы

!ВНИМАНИЕ!
Сайт не предоставляет электронные версии произведений, а занимается лишь коллекционированием и каталогизацией ссылок, присылаемых и публикуемых на форуме нашими читателями. Если вы являетесь правообладателем какого-либо представленного материала и не желаете, чтобы ссылка на него находилась в нашем каталоге, свяжитесь с нами, и мы незамедлительно удалим ее. Файлы для обмена на трекере предоставлены пользователями сайта, и администрация не несет ответственности за их содержание. Просьба не заливать файлы, защищенные авторскими правами, а также файлы нелегального содержания!