[ Сегодня идет свободное скачивание без начисления Download ]


Статистика раздачи
Нет
 
   
 
Top  
 
 
-Если бы стены могли говорить 2 / If These Walls Could Talk 2 (2000) DVDRip- Страна: США
Русское название: Если бы стены могли говорить 2
Оригинальное название: If These Walls Could Talk 2
Год выпуска: 2000
Жанр: Драма
Описание фильма:
Три женщины сняли три прекрасные новеллы о любви и любовных отношениях, в которых есть все, кроме... мужчин. 1961: История двух пожилых женщин, которые всю жизнь любили друг друга. И одной из них пришлось покинуть этот мир по воле несчастного случая. И когда ее подруга осталась одна, перед ней проходит вся их история, с самого начала и с новой силой. 1972: История двух девушек, которые решили, что им не нужны мужчины. Они сделали это еще до того, как встретились. Но после первых свиданий одна из них почувствовала, что традиционные взгляды общества сильней ее любви. Теперь нужно преодолеть свои комплексы и снова попробовать стать счастливой. 2000: В наше время никто не будет унижать двух взрослых женщин потому, что они любят друг друга и не скрывают этого. Но как завести ребенка, если переспать с мужчиной означает измену. Для этого есть доноры "сливок" (так "это" называется в медицинском центре беременности) - неизвестные полицейские, пловцы, плотники, один из которых подарит счастливой паре ребенка при помощи искусственного зачатия.
Режиссер: Джейн Андерсон / Jane Anderson, Марта Кулидж / Martha Coolidge, Энн Хеч / Anne Heche
Актеры: Шэрон Стоун, Ванесса Редгрейв, Мэриэн Селдес, Пол Джаматти, Элизабет Перкинс, Дженни О`Хара, Марли МакКлин, Дональд Элсон, Сьюзэн Мошер, Наташа Лионни
Продолжительность: 01:32:06
Перевод: Многоголосый закадровый

Качество видео: DVDRip by Yarmak1988
Формат видео: AVI
Видео: XviD, 704x512, 25.000 fps, ~1658 kbps avg, 0.184 bit/pixel
Аудио: AC3 Dolby Digital, 3/2 (L,C,R,l,r) + LFE ch, 48 kHz, ~448.00 kbps avg
Субтитры: нет
Сэмпл: Ссылка

Mediainfo

General
Complete name : Если бы стены могли говорить 2. If These Walls Could Talk 2. 2000. (драм. альманах). DVDRip.avi
Format : AVI
Format/Info : Audio Video Interleave
File size : 1.36 GiB
Duration : 1h 32mn
Overall bit rate : 2 112 Kbps
Writing application : VirtualDubModRus 1.5.10.2 (build 2542/release)
Writing library : VirtualDubMod build 2542/release
Video
ID : 0
Format : MPEG-4 Visual
Format profile : Advanced Simple@L5
Format settings, BVOP : 1
Format settings, QPel : No
Format settings, GMC : No warppoints
Format settings, Matrix : Default (MPEG)
Muxing mode : Packed bitstream
Codec ID : XVID
Codec ID/Hint : XviD
Duration : 1h 32mn
Bit rate : 1 654 Kbps
Width : 704 pixels
Height : 512 pixels
Display aspect ratio : 1.375
Frame rate : 25.000 fps
Color space : YUV
Chroma subsampling : 4:2:0
Bit depth : 8 bits
Scan type : Progressive
Compression mode : Lossy
Bits/(Pixel*Frame) : 0.184
Stream size : 1.06 GiB (78%)
Writing library : XviD 1.2.0.dev47 (UTC 2006-11-01)
Audio
ID : 1
Format : AC-3
Format/Info : Audio Coding 3
Mode extension : CM (complete main)
Format settings, Endianness : Big
Codec ID : 2000
Duration : 1h 32mn
Bit rate mode : Constant
Bit rate : 448 Kbps
Channel(s) : 6 channels
Channel positions : Front: L C R, Side: L R, LFE
Sampling rate : 48.0 KHz
Bit depth : 16 bits
Compression mode : Lossy
Stream size : 295 MiB (21%)
Alignment : Split accross interleaves
Interleave, duration : 40 ms (1.00 video frame)
Interleave, preload duration : 500 ms
Скриншоты:

Моё мнение о фильме

Достойное продолжение достойного фильма.
Женский взгляд на жизнь и всё, что с неё связано.
Рекомендую.
Время раздачи: С 10:00 до 17:00 (мск)

[Цитировать]



Показать сообщения:    

Текущее время: 25-Июн 08:06

Часовой пояс: UTC + 6


Вы не можете начинать темы
Вы не можете отвечать на сообщения
Вы не можете редактировать свои сообщения
Вы не можете удалять свои сообщения
Вы не можете голосовать в опросах
Вы не можете прикреплять файлы к сообщениям
Вы не можете скачивать файлы

!ВНИМАНИЕ!
Сайт не предоставляет электронные версии произведений, а занимается лишь коллекционированием и каталогизацией ссылок, присылаемых и публикуемых на форуме нашими читателями. Если вы являетесь правообладателем какого-либо представленного материала и не желаете, чтобы ссылка на него находилась в нашем каталоге, свяжитесь с нами, и мы незамедлительно удалим ее. Файлы для обмена на трекере предоставлены пользователями сайта, и администрация не несет ответственности за их содержание. Просьба не заливать файлы, защищенные авторскими правами, а также файлы нелегального содержания!