[ Сегодня идет свободное скачивание без начисления Download ]


Статистика раздачи
Нет
 
   
 
Top  
 
 
-Вендетта / Vendetta (1999) DVDRip- Страна: США
Русское название: Вендетта
Оригинальное название: Vendetta
Год выпуска: 1999
Жанр: Драма
Описание фильма:
Фильм, основан на реальных событиях, произошедших в 1890 году в доках Нового Орлеана. Шокирующая, трагическая история самого кровавого и жестокого линчевания в истории Америки.
Сюжет: Эмигранты, приехавшие на заработки в Америку не знали, что вскоре загадочное и жестокое убийство шерифа Нового Орлеана подведет под подозрение невиновных. Коррумпированное руководство города держит все население города в страхе, жестоко расправляясь с эмигрантами. Тринадцать рабочих формально осуждаются за убийство, а девять попадают под судебное разбирательство.
Режиссер: Николас Мейер / Nicholas Meyer
Актеры: Кристофер Уокен, Люк Аскью, Джеймс Берден, Крис Бенсон, Ричард Блэкберн и др.
Продолжительность: 01:52:38
Перевод: Многоголосый закадровый

Качество: DVDRip by PROton1
Формат: AVI
Видео: DivX, 512x384 (1.33:1), 25 fps, ~1614 kbps avg, 0.33 bit/pixel
Аудио: MP3, 2 ch, 48 kHz, ~109.62 kbps avg
Субтитры: нет
Сэмпл: Ссылка

Mediainfo

General
Complete name : Вендетта. Vendetta. 1999. (сильная драма). DVDRip.avi
Format : AVI
Format/Info : Audio Video Interleave
File size : 1.37 GiB
Duration : 1h 52mn
Overall bit rate mode : Variable
Overall bit rate : 1 738 Kbps
Writing application : VirtualDubMod 1.5.4.1 (build 2178/release)
Writing library : VirtualDubMod build 2178/release
Video
ID : 0
Format : MPEG-4 Visual
Format settings, BVOP : 1
Format settings, QPel : No
Format settings, GMC : No warppoints
Format settings, Matrix : Default (H.263)
Muxing mode : Packed bitstream
Codec ID : DX50
Codec ID/Hint : DivX 5
Duration : 1h 52mn
Bit rate : 1 615 Kbps
Width : 512 pixels
Height : 384 pixels
Display aspect ratio : 4:3
Frame rate : 25.000 fps
Color space : YUV
Chroma subsampling : 4:2:0
Bit depth : 8 bits
Scan type : Progressive
Compression mode : Lossy
Bits/(Pixel*Frame) : 0.329
Stream size : 1.27 GiB (93%)
Writing library : DivX 6.7.0 (UTC 2007-09-20)
Audio
ID : 1
Format : MPEG Audio
Format version : Version 1
Format profile : Layer 3
Mode : Joint stereo
Mode extension : MS Stereo
Codec ID : 55
Codec ID/Hint : MP3
Duration : 1h 52mn
Bit rate mode : Variable
Bit rate : 110 Kbps
Nominal bit rate : 128 Kbps
Channel(s) : 2 channels
Sampling rate : 48.0 KHz
Compression mode : Lossy
Stream size : 88.3 MiB (6%)
Alignment : Aligned on interleaves
Interleave, duration : 24 ms (0.60 video frame)
Interleave, preload duration : 546 ms
Writing library : LAME3.97
Encoding settings : -m j -V 4 -q 2 -lowpass 17 --abr 128
Language : Russian
Скриншоты:

Моё мнение о фильме

Фильм снят по реальным событиям. Вот действительно так бывает: группа людей оказалась не в то время, не в том месте и "удачно" подвернулись под руку.
Фильм тяжело смотреть, но снят он добротно.
Рекомендую.
Время раздачи: С 10:00 до 17:00 (мск)

[Цитировать]



Показать сообщения:    

Текущее время: 05-Дек 13:30

Часовой пояс: UTC + 3


Вы не можете начинать темы
Вы не можете отвечать на сообщения
Вы не можете редактировать свои сообщения
Вы не можете удалять свои сообщения
Вы не можете голосовать в опросах
Вы не можете прикреплять файлы к сообщениям
Вы не можете скачивать файлы

!ВНИМАНИЕ!
Сайт не предоставляет электронные версии произведений, а занимается лишь коллекционированием и каталогизацией ссылок, присылаемых и публикуемых на форуме нашими читателями. Если вы являетесь правообладателем какого-либо представленного материала и не желаете, чтобы ссылка на него находилась в нашем каталоге, свяжитесь с нами, и мы незамедлительно удалим ее. Файлы для обмена на трекере предоставлены пользователями сайта, и администрация не несет ответственности за их содержание. Просьба не заливать файлы, защищенные авторскими правами, а также файлы нелегального содержания!