[ Сегодня идет свободное скачивание без начисления Download ]


Статистика раздачи
Нет
 
   
 
Top  
 
 
-Реальность / Reality (2012) DVDRip- Русское название: Реальность
Оригинальное название: Reality
Год выпуска: 2012
Жанр: Драма, Комедия
Производство: Италия, Франция / Fandango, Archimede, Le Pacte
Описание фильма:
Лучано, торговец рыбой из Неаполя, глава большого семейства, энергичный, веселый парень, по натуре комик. Он никогда не упускает возможности устроить представление для своих покупателей и многочисленных родственников. Однажды детям приходит в голову, что их талантливый папа мог бы стать участником реалити-шоу «Большой брат». И они убеждают его в этом. Телереальность и мечта «попасть в телевизор» абсолютно меняют жизнь Лучано. Больше ничто не имеет для него значения — ни жена, ни семья, ни друзья, ни работа…
Режиссер: Маттео Гарроне
Актеры: Аньелло Арена, Лоредана Симиоли, Нандо Паоне, Нэлло Иорио, Нундзиа Скьяно, Розария Д’Урсо, Джузеппина Червицци, Клаудия Джерини, Паола Миначчони, Чиро Петроне
Продолжительность: 01:51:33
Перевод: Профессиональное (многоголосое) [лицензия]

Дата мировой премьеры: 18 мая 2012
Дата российской премьеры: 11 октября 2012
Качество видео: DVDRip
Видеокодек: XviD
Битрейт видео: ~ 1849 Кбит/сек
Размер кадра: 720x304
Аудио:
Аудио 1: AC3, 384 kb/s (6 ch) Русский
Аудио 2: AC3, 384 kb/s (6 ch) Итальянский

MediaInfo:

Общее
Полное имя : H:\ШАРА\ФИЛЬМЫ самсунг\Тмп\Раздачи\Realnost.2012.nnm.DVDRip.avi
Формат : AVI
Формат/Информация : Audio Video Interleave
Профиль формата : OpenDML
Размер файла : 2,05 Гбайт
Продолжительность : 1 ч. 51 м.
Общий поток : 2635 Кбит/сек
Программа кодирования : VirtualDubMod 1.5.10.3 | www.virtualdub-fr.org || (build 2550/release)
Видео
Идентификатор : 0
Формат : MPEG-4 Visual
Профиль формата : Advanced [email protected]
Параметр BVOP формата : 1
Параметр QPel формата : Нет
Параметр GMC формата : Без точки перехода
Параметр матрицы формата : Выборочная
Идентификатор кодека : XVID
Идентификатор кодека/Подсказка : XviD
Продолжительность : 1 ч. 51 м.
Битрейт : 1849 Кбит/сек
Ширина : 720 пикселей
Высота : 304 пикселя
Соотношение сторон : 2,35:1
Частота кадров : 25,000 кадров/сек
Цветовое пространство : YUV
Субдискретизация насыщенности : 4:2:0
Битовая глубина : 8 бит
Тип развёртки : Прогрессивная
Метод сжатия : С потерями
Бит/(Пиксели*Кадры) : 0.338
Размер потока : 1,44 Гбайт (70%)
Библиотека кодирования : XviD 1.2.1 (UTC 2008-12-04)
Аудио #1
Идентификатор : 1
Формат : AC-3
Формат/Информация : Audio Coding 3
Расширение режима : CM (complete main)
Идентификатор кодека : 2000
Продолжительность : 1 ч. 51 м.
Вид битрейта : Постоянный
Битрейт : 384 Кбит/сек
Каналы : 6 каналов
Расположение каналов : Front: L C R, Side: L R, LFE
Частота : 48,0 КГц
Битовая глубина : 16 бит
Метод сжатия : С потерями
Размер потока : 306 Мбайт (15%)
Выравнивание : Разделение по промежуткам
Продолжительность промежутка : 40 мс. (1,00 видеокадр)
Время предзагрузки промежутка : 500 мс.
Аудио #2
Идентификатор : 2
Формат : AC-3
Формат/Информация : Audio Coding 3
Расширение режима : CM (complete main)
Идентификатор кодека : 2000
Продолжительность : 1 ч. 51 м.
Вид битрейта : Постоянный
Битрейт : 384 Кбит/сек
Каналы : 6 каналов
Расположение каналов : Front: L C R, Side: L R, LFE
Частота : 48,0 КГц
Битовая глубина : 16 бит
Метод сжатия : С потерями
Размер потока : 306 Мбайт (15%)
Выравнивание : Разделение по промежуткам
Продолжительность промежутка : 40 мс. (1,00 видеокадр)
Время предзагрузки промежутка : 500 мс.
Скриншоты:
Время раздачи: С 09:00 до 24:00 мск

[Цитировать]



Показать сообщения:    

Текущее время: 04-Дек 19:21

Часовой пояс: UTC + 3


Вы не можете начинать темы
Вы не можете отвечать на сообщения
Вы не можете редактировать свои сообщения
Вы не можете удалять свои сообщения
Вы не можете голосовать в опросах
Вы не можете прикреплять файлы к сообщениям
Вы не можете скачивать файлы

!ВНИМАНИЕ!
Сайт не предоставляет электронные версии произведений, а занимается лишь коллекционированием и каталогизацией ссылок, присылаемых и публикуемых на форуме нашими читателями. Если вы являетесь правообладателем какого-либо представленного материала и не желаете, чтобы ссылка на него находилась в нашем каталоге, свяжитесь с нами, и мы незамедлительно удалим ее. Файлы для обмена на трекере предоставлены пользователями сайта, и администрация не несет ответственности за их содержание. Просьба не заливать файлы, защищенные авторскими правами, а также файлы нелегального содержания!