[ Сегодня идет свободное скачивание без начисления Download ]


Статистика раздачи
Нет
 
   
 
Top  
 
 
-Сахара / Sahara (1995) DVDRip- Русское название: Сахара
Оригинальное название: Sahara
Год выпуска: 1995
Жанр: Боевик, Военный
Описание фильма:
Северная Африка, 1942 год. После боев с армией немецкого генерала Роммеля от танкового батальона, в котором воюет Белуши, осталась только его любимая машина по имени Бель Лу. Отступать можно только на юг, так как остальные стороны света перекрыты противником. Захватив остатки, среди которых помимо американцев, француз, австралиец, медик-англичанин, чернокожий суданец британской армии, да пленный итальянец, сержант Белуши ведет танк в раскаленные пески Сахары в поисках воды. Они находят полупересохший колодец, к которому по их следу идет отряд в 500 немцев, изнемогающих от жажды. Вскоре вода кончается. Но фляги наполнены, и можно уходить, оставив немцам пересохший колодец. Но Белуши решает принять бой, который может позволить перегруппироваться войскам союзников. Немцы, думая, что вода в колодце есть, отчаянно атакуют снова и снова. Редко попадаются такие захватывающие и лихие военные картины.
Режиссер: Брайан Тренчард-Смит / Brian Trenchard-Smith
Актеры: Джеймс Белуши /James Belushi, Элан Дэвид Ли, Саймон Уэстэуэй /Simon Westaway, Марк Ли /Mark Lee, Майкл Мэсси /Michael Massee, Роберт Уиздом /Robert Wisdom, Анджело Д'Анджело, Пол Эмпсон...
Продолжительность: 1:45:54
Перевод: Профессиональный (многоголосый закадровый) HTB+

_________________________________
Видеокодек: Xvid
Битрейт видео: ~1771 Kbps
Размер кадра: 704x528
Качество видео: DVDRip
Аудио: AC3, 2 ch, 192.00 kbps
-

MI

General
Complete name : SAHARA.1995.DVDRip.avi
Format : AVI
Format/Info : Audio Video Interleave
File size : 1.46 GiB
Duration : 1h 46mn
Overall bit rate : 1 972 Kbps
Writing application : VirtualDubMod 1.5.10.3 | www.virtualdub-fr.org || (build 2550/release)
Writing library : VirtualDubMod build 2550/release
Video
ID : 0
Format : MPEG-4 Visual
Format profile : Advanced Simple@L5
Format settings, BVOP : 1
Format settings, QPel : No
Format settings, GMC : No warppoints
Format settings, Matrix : Custom
Codec ID : XVID
Codec ID/Hint : XviD
Duration : 1h 46mn
Bit rate : 1 771 Kbps
Width : 704 pixels
Height : 528 pixels
Display aspect ratio : 4:3
Frame rate : 23.976 fps
Color space : YUV
Chroma subsampling : 4:2:0
Bit depth : 8 bits
Scan type : Progressive
Compression mode : Lossy
Bits/(Pixel*Frame) : 0.199
Stream size : 1.31 GiB (90%)
Writing library : XviD 73
Audio
ID : 1
Format : AC-3
Format/Info : Audio Coding 3
Mode extension : CM (complete main)
Format settings, Endianness : Big
Codec ID : 2000
Duration : 1h 46mn
Bit rate mode : Constant
Bit rate : 192 Kbps
Channel(s) : 2 channels
Channel positions : Front: L R
Sampling rate : 48.0 KHz
Bit depth : 16 bits
Compression mode : Lossy
Stream size : 146 MiB (10%)
Alignment : Split accross interleaves
Interleave, duration : 42 ms (1.00 video frame)
Interleave, preload duration : 500 ms
-
Время раздачи: с 23:00 до 6:30

[Цитировать]



Показать сообщения:    

Текущее время: 23-Янв 17:52

Часовой пояс: UTC + 3


Вы не можете начинать темы
Вы не можете отвечать на сообщения
Вы не можете редактировать свои сообщения
Вы не можете удалять свои сообщения
Вы не можете голосовать в опросах
Вы не можете прикреплять файлы к сообщениям
Вы не можете скачивать файлы

!ВНИМАНИЕ!
Сайт не предоставляет электронные версии произведений, а занимается лишь коллекционированием и каталогизацией ссылок, присылаемых и публикуемых на форуме нашими читателями. Если вы являетесь правообладателем какого-либо представленного материала и не желаете, чтобы ссылка на него находилась в нашем каталоге, свяжитесь с нами, и мы незамедлительно удалим ее. Файлы для обмена на трекере предоставлены пользователями сайта, и администрация не несет ответственности за их содержание. Просьба не заливать файлы, защищенные авторскими правами, а также файлы нелегального содержания!