[ Сегодня идет свободное скачивание без начисления Download ]


Статистика раздачи
Нет
 
   
 
Top  
 
 
-Реальность кусается / Reality Bites (1994) HDTVRip-«Комедия о любви в 90-х»- Русское название: Реальность кусается
Оригинальное название: Reality Bites
Год выпуска: 1994
Страна: США
Жанр: Драма, Мелодрама, Комедия-Описание фильма:
Лилайна работает ассистентом несносного телеведущего. В свободное от работы время наша героиня снимает документальный фильм о своих сверстниках, среди которых — ее лучший друг Трэй — способный, но бесцельно прожигающий время «бунтарь».
После появления Майкла — амбициозного видео продюсера, Лилайна неожиданно для себя оказывается в эпицентре страстного любовного треугольника. Теперь ей предстоит выбирать между надежным, успешным Майклом и мечтательным, праздношатающимся красавцем Трэем.-Режиссер: Бен Стиллер
Продюсеры: Дэнни ДеВито, Майкл Шамберг, Билл Финнегэн
Актеры: Вайнона Райдер, Этан Хоук, Джанин Гарофало, Стив Зан, Бен Стиллер, Свузи Кёрц, Гарри О’Рейли, Сьюзэн Норфлит, Джо Дон Бейкер, Рене Зеллвегер-Продолжительность: 01:38:14
Перевод: Двуголосый закадровый, профессиональный- -Дата мировой премьеры: 18 февраля 1994-Видеокодек: Xvid
Битрейт видео: ~918 kb/s
Размер кадра: 624x352
Качество видео: HDTVRip
Аудиокодек: MP3 (2 ch)
Битрейт аудио: 128 kb/s

MediaInfo

Общее
Полное имя : D:\Торрент раздача\Realnost_kusaetsya_HDTVRip.avi
Формат : AVI
Формат/Информация : Audio Video Interleave
Размер файла : 742 Мбайт
Продолжительность : 1 ч. 38 м.
Общий поток : 1056 Кбит/сек
Программа кодирования : VirtualDubMod 1.5.10.2 (build 2540/release)
Библиотека кодирования : VirtualDubMod build 2540/release
Видео
Идентификатор : 0
Формат : MPEG-4 Visual
Профиль формата : Advanced [email protected]
Параметр BVOP формата : 1
Параметр QPel формата : Нет
Параметр GMC формата : Без точки перехода
Параметр матрицы формата : Выборочная
Идентификатор кодека : XVID
Идентификатор кодека/Подсказка : XviD
Продолжительность : 1 ч. 38 м.
Битрейт : 919 Кбит/сек
Ширина : 624 пикселя
Высота : 352 пикселя
Соотношение сторон : 16:9
Частота кадров : 23,976 кадра/сек
Цветовое пространство : YUV
Субдискретизация насыщенности : 4:2:0
Битовая глубина : 8 бит
Тип развёртки : Прогрессивная
Метод сжатия : С потерями
Бит/(Пиксели*Кадры) : 0.174
Размер потока : 646 Мбайт (87%)
Библиотека кодирования : XviD 1.2.1 (UTC 2008-12-04)
Аудио
Идентификатор : 1
Формат : MPEG Audio
Версия формата : Version 1
Профиль формата : Layer 3
Идентификатор кодека : 55
Идентификатор кодека/Подсказка : MP3
Продолжительность : 1 ч. 38 м.
Вид битрейта : Постоянный
Битрейт : 128 Кбит/сек
Каналы : 2 канала
Частота : 48,0 КГц
Метод сжатия : С потерями
Размер потока : 89,9 Мбайт (12%)
Выравнивание : Соединение по промежуткам
Продолжительность промежутка : 42 мс. (1,00 видеокадр)
Время предзагрузки промежутка : 504 мс.
Библиотека кодирования : LAME3.97
Настройки программы : -m s -V 4 -q 2 -lowpass 17 -b 128
Скриншоты:
Время раздачи: 24/7

[Цитировать]



Показать сообщения:    

Текущее время: 05-Дек 13:34

Часовой пояс: UTC + 3


Вы не можете начинать темы
Вы не можете отвечать на сообщения
Вы не можете редактировать свои сообщения
Вы не можете удалять свои сообщения
Вы не можете голосовать в опросах
Вы не можете прикреплять файлы к сообщениям
Вы не можете скачивать файлы

!ВНИМАНИЕ!
Сайт не предоставляет электронные версии произведений, а занимается лишь коллекционированием и каталогизацией ссылок, присылаемых и публикуемых на форуме нашими читателями. Если вы являетесь правообладателем какого-либо представленного материала и не желаете, чтобы ссылка на него находилась в нашем каталоге, свяжитесь с нами, и мы незамедлительно удалим ее. Файлы для обмена на трекере предоставлены пользователями сайта, и администрация не несет ответственности за их содержание. Просьба не заливать файлы, защищенные авторскими правами, а также файлы нелегального содержания!