[ Сегодня идет свободное скачивание без начисления Download ]


Статистика раздачи
Скачал: [ 8 ]
 
   
 
Top  
 
 
Инкарнация / Incarnate (2016) WEB-DL 1080p-LQ - Производство: США
Жанр: Ужасы, Триллер
Режиссер: Брэд Пейтон
Актеры: Кэрис ван Хаутен, Аарон Экхарт, Дэвид Мазоуз, Каталина Сандино Морено, Эмджей Энтони, Бриэнн Хилл, Каролина Выдра, Мэтью Нэйбл, Кейр О’Доннелл, Марк Стегер
Описание:
Доктор Эмбер — не экзорцист. У него свои методы изгонять зло, поселившееся в людях. Но, проникнув в сознание 11-летнего мальчика, доктор понял, что это именно тот могущественный демон, с которым он ищет встречи уже многие годы.

Возраст: 16+ (зрителям, достигшим 16 лет)
Рейтинг MPAA: PG-13 (детям до 13 лет просмотр нежелателен)
Дата мировой премьеры: 1 декабря 2016
Дата российской премьеры: 1 декабря 2016
Продолжительность: 01:26:59
Качество видео: WEB-DL
Перевод: Дублированный (Чистый звук)
Вид субтитров: Отсутствуют
Реклама: Присутствуют аудио и видео вставки рекламы
Видео: AVC/H.264, 1912x796, ~4995 kbps
Аудио: AC3, 2 ch, 384 kbps, CBR

Информация по видеофайлу

Общее
Уникальный идентификатор : 240989614345770214505754548408463317549 (0xB54CE955258C1C9ABBAE06DF544EDA2D)
Полное имя : C:Торренты\Инкарнация.2016.D.WEB-DL.1080p.mkv
Формат : Matroska
Версия формата : Version 2
Размер файла : 3,27 Гбайт
Продолжительность : 1 ч. 26 м.
Режим общего битрейта : Переменный
Общий поток : 5381 Кбит/сек
Дата кодирования : UTC 2017-01-09 16:28:53
Программа кодирования : mkvmerge v8.3.0 ('Over the Horizon') 64bit
Библиотека кодирования : libebml v1.3.1 + libmatroska v1.4.2
Видео
Идентификатор : 1
Формат : AVC
Формат/Информация : Advanced Video Codec
Профиль формата : High@L4.1
Параметр CABAC формата : Да
Параметр ReFrames формата : 5 кадров
Идентификатор кодека : V_MPEG4/ISO/AVC
Продолжительность : 1 ч. 26 м.
Вид битрейта : Переменный
Битрейт : 4995 Кбит/сек
Максимальный битрейт : 5400 Кбит/сек
Ширина : 1912 пикселей
Высота : 796 пикселей
Соотношение сторон : 2,40:1
Режим частоты кадров : Постоянный
Частота кадров : 23,976 (24000/1001) кадра/сек
Стандарт вещания : Component
Цветовое пространство : YUV
Субдискретизация насыщенности : 4:2:0
Битовая глубина : 8 бит
Тип развёртки : Прогрессивная
Бит/(Пиксели*Кадры) : 0.137
Размер потока : 3,04 Гбайт (93%)
Default : Да
Forced : Нет
Цветовой диапазон : Limited
Основные цвета : BT.709
Характеристики трансфера : BT.709
Коэффициенты матрицы : BT.709
Аудио
Идентификатор : 2
Формат : AC-3
Формат/Информация : Audio Coding 3
Расширение режима : CM (complete main)
Параметр Endianness формата : Big
Идентификатор кодека : A_AC3
Продолжительность : 1 ч. 26 м.
Вид битрейта : Постоянный
Битрейт : 384 Кбит/сек
Каналы : 2 канала
Расположение каналов : Front: L R
Частота : 48,0 КГц
Частота кадров : 31,250 кадров/сек (1536 spf)
Битовая глубина : 16 бит
Метод сжатия : С потерями
Размер потока : 239 Мбайт (7%)
Default : Да
Forced : Нет
Скриншоты:

[Цитировать]



Показать сообщения:    

Текущее время: 19-Фев 17:26

Часовой пояс: UTC + 3


Вы не можете начинать темы
Вы не можете отвечать на сообщения
Вы не можете редактировать свои сообщения
Вы не можете удалять свои сообщения
Вы не можете голосовать в опросах
Вы не можете прикреплять файлы к сообщениям
Вы не можете скачивать файлы

!ВНИМАНИЕ!
Сайт не предоставляет электронные версии произведений, а занимается лишь коллекционированием и каталогизацией ссылок, присылаемых и публикуемых на форуме нашими читателями. Если вы являетесь правообладателем какого-либо представленного материала и не желаете, чтобы ссылка на него находилась в нашем каталоге, свяжитесь с нами, и мы незамедлительно удалим ее. Файлы для обмена на трекере предоставлены пользователями сайта, и администрация не несет ответственности за их содержание. Просьба не заливать файлы, защищенные авторскими правами, а также файлы нелегального содержания!