[ Сегодня идет свободное скачивание без начисления Download ]


Статистика раздачи
Нет
 
   
 
Top  
 
 
-Фрэнки наводит шорох / Frankie Go Boom (2012) HDRip- Русское название: Фрэнки наводит шорох
Оригинальное название: Frankie Go Boom
Год выпуска: 2012
Производство: США | Ministry of Content
Жанр: Комедия
Перевод: Одноголосый закадровый [den904], перевод [Janetta]
Субтитры: Отсутствуют-Дата мировой премьеры: 10 марта 2012-Режиссер: Джордан Робертс
Продюсеры: Павлина Хатупис, Марсель Лангенеггер, Катаюн А. Марсиано
Актеры: Чарли Ханнэм, Крис О’Дауд, Лиззи Каплан, Крис Нот, Рон Перлман, Сэм Андерсон, Джордан Блэк, Уитни Каммингс, Джастин Дрей, Нора Данн ...-Описание фильма:
Франк Бартлетт долгое время подвергался пыткам, издевкам, и оскорблениям от своего брата-наркомана Брюса — и, как правило, все это Брюс записывал на камеру. Теперь, когда Брюс, наконец, завязал с наркотиками и изменил свою жизнь, все должно пойти к лучшему, но…- -Продолжительность: 01:29:01
Качество видео: HDRip-Видеокодек: Xvid
Битрейт видео: ~960 Кбит/сек
Размер кадра: 704x288
Аудиокодек: MP3 (2 ch)
Битрейт аудио: 128 Кбит/сек

MediaInfo:

Общее
Полное имя : D:\Торрент раздача\Frjenki.navodit.shoroh.2012.L1.HDRip.700MB.avi
Формат : AVI
Формат/Информация : Audio Video Interleave
Размер файла : 699 Мбайт
Продолжительность : 1 ч. 29 м.
Общий поток : 1098 Кбит/сек
Название фильма : Frankie Go Boom (2012)
Программа кодирования : VirtualDubMod 1.5.10.3 (build 2550/release)
Видео
Идентификатор : 0
Формат : MPEG-4 Visual
Профиль формата : Advanced Simple@L5
Параметр BVOP формата : 2
Параметр QPel формата : Нет
Параметр GMC формата : Без точки перехода
Параметр матрицы формата : Выборочная
Режим смешивания : Сжатый битовый поток
Идентификатор кодека : XVID
Идентификатор кодека/Подсказка : XviD
Продолжительность : 1 ч. 29 м.
Битрейт : 961 Кбит/сек
Ширина : 704 пикселя
Высота : 288 пикселей
Соотношение сторон : 2,40:1
Частота кадров : 23,976 кадра/сек
Цветовое пространство : YUV
Субдискретизация насыщенности : 4:2:0
Битовая глубина : 8 бит
Тип развёртки : Прогрессивная
Метод сжатия : С потерями
Бит/(Пиксели*Кадры) : 0.198
Размер потока : 612 Мбайт (87%)
Библиотека кодирования : XviD 65
Аудио
Идентификатор : 1
Формат : MPEG Audio
Версия формата : Version 1
Профиль формата : Layer 3
Режим : Joint stereo
Идентификатор кодека : 55
Идентификатор кодека/Подсказка : MP3
Продолжительность : 1 ч. 29 м.
Вид битрейта : Постоянный
Битрейт : 128 Кбит/сек
Каналы : 2 канала
Частота : 48,0 КГц
Метод сжатия : С потерями
Размер потока : 81,5 Мбайт (12%)
Выравнивание : Соединение по промежуткам
Продолжительность промежутка : 42 мс. (1,00 видеокадр)
Время предзагрузки промежутка : 504 мс.
Библиотека кодирования : LAME3.98.4
Скриншоты:
Время раздачи: 24/7

[Цитировать]



Показать сообщения:    

Текущее время: 10-Дек 00:21

Часовой пояс: UTC + 3


Вы не можете начинать темы
Вы не можете отвечать на сообщения
Вы не можете редактировать свои сообщения
Вы не можете удалять свои сообщения
Вы не можете голосовать в опросах
Вы не можете прикреплять файлы к сообщениям
Вы не можете скачивать файлы

!ВНИМАНИЕ!
Сайт не предоставляет электронные версии произведений, а занимается лишь коллекционированием и каталогизацией ссылок, присылаемых и публикуемых на форуме нашими читателями. Если вы являетесь правообладателем какого-либо представленного материала и не желаете, чтобы ссылка на него находилась в нашем каталоге, свяжитесь с нами, и мы незамедлительно удалим ее. Файлы для обмена на трекере предоставлены пользователями сайта, и администрация не несет ответственности за их содержание. Просьба не заливать файлы, защищенные авторскими правами, а также файлы нелегального содержания!