[ Сегодня идет свободное скачивание без начисления Download ]


Статистика раздачи
Нет
 
   
 
Top  
 
 
-Нэйт и Хейс / Nate and Hayes (1983) [H.264] DVDRip-«He's a scoundrel... A hero... A lover of danger and the last of the adventurers... This is the story of Bully Hayes!»- Русское название: Нэйт и Хейс
Оригинальное название: Nate and Hayes
Год выпуска: 1983
Жанр: Боевик, Мелодрама, Комедия, Приключения
Страна: США, Новая Зеландия
Производство: Paramount Pictures
Описание фильма:
Неразборчивый в средствах капитан Хейс, чем только не промышлявший в своей жизни, берется доставить на острова брачную пару: молодого миссионера и его невесту. Но едва новобрачные высаживаются, на миссию нападает лютый враг Хейса, пират Пис, убивает всех, а девушку похищает. Хейс, успевший влюбиться в красавицу, и ее жених (Нэйт), чудом оставшийся в живых, бросаются в погоню на шхуне Хейса, не подозревая, что злодей уже спелся с немецким графом, мечтающим утвердить на островах колонии Кайзера. И все бы ничего, но против шхуны Хейса у него есть настоящий бронированный дредноут...
Режиссер: Фердинанд Фэйрфакс
Сценарий: Джон Хьюз, Дэвид Оделл, Ллойд Филлипс
Продюсер: Ллойд Филлипс, Роберт Уайтхаус
Актеры: Томми Ли Джонс, Майкл О’Киф, Макс Фиппс, Дженни Сигроув, Грант Тилли, Питер Роули, Кейт Харкорт, Рег Рука, Рой Биллинг, Брюс Олпресс
Продолжительность: 01:39:36
Перевод: Одноголосый закадровый (Алексей Багичев)
Субтитры: Отсутствуют

Дата мировой премьеры: 18 ноября 1983
Видеокодек: MPEG-4 AVC/H.264
Битрейт видео: ~2400 Кбит/сек
Размер кадра: 720x400
Качество видео: DVDRip
Аудиокодек: AC3 2.0
Битрейт аудио: 192 kbps

Реценция с кинопоиска от Gorg:

Томми такой Томми
Фильмов про настоящих пиратов не так уж и много. Между тем, тема сама по себе весьма интересна с исторической точки зрения. Перед нами предстают последние классические пираты. Эпоха меняется, просторы Тихого Океана начинают бороздить пароходы.
Сюжет в целом достаточно отдаёт классикой, но фильм смотрится очень ровно и предлагает нам замечательное путешествие, наполненное приключениями. Получился эдакий вестерн на воде и красивых островах. Если бы весь фильм был наполнен такими же прекрасными моментами, как в некоторых эпизодах, стал бы он успешным в прокате. Местами по настоящему смешно, но находок мало. Честно. Да, и здесь нет Карибского моря.
Впрочем, свой вклад он внёс в историю кинематографа. Тут есть Томми ли Джонс, стандартная история любви, много туземцев и много красивой природы на фоне бескрайнего океана. История светлая и помогает легко скоротать один из зимних вечеров за просмотром фильма,
в котором Спилберг подсмотрел, и год спустя реализовал в блокбастере один из скоммунизженных эпизодов.
Так что Фэйрфакс старался не зря.
Мало кто смотрел этот фильм, ну а мне он понравился, отчасти за актёрскую игру Томми.

10 из 10

MediaInfo:

Общее
Уникальный идентификатор : 232713420811133973022442052885018537243 (0xAF12F97CC5384C5989D76B53E52F6D1B)
Полное имя : D:\Downloads\Нэйт и Хейс.mkv
Формат : Matroska
Версия формата : Version 2
Размер файла : 1,80 Гбайт
Продолжительность : 1 ч. 39 м.
Общий поток : 2593 Кбит/сек
Дата кодирования : UTC 2013-02-01 10:45:12
Программа кодирования : mkvmerge v5.7.0 ('The Whirlwind') built on Jul 29 2012 15:12:35
Библиотека кодирования : libebml v1.2.3 + libmatroska v1.3.0
Видео
Идентификатор : 1
Формат : AVC
Формат/Информация : Advanced Video Codec
Профиль формата : High@L4.1
Параметр CABAC формата : Да
Параметр ReFrames формата : 8 кадров
Режим смешивания : Header stripping
Идентификатор кодека : V_MPEG4/ISO/AVC
Продолжительность : 1 ч. 39 м.
Битрейт : 2400 Кбит/сек
Ширина : 720 пикселей
Высота : 400 пикселей
Соотношение сторон : 16:9
Режим частоты кадров : Постоянный
Частота кадров : 23,976 кадра/сек
Цветовое пространство : YUV
Субдискретизация насыщенности : 4:2:0
Битовая глубина : 8 бит
Тип развёртки : Прогрессивная
Бит/(Пиксели*Кадры) : 0.348
Размер потока : 1,63 Гбайт (91%)
Заголовок : Nate and Hayes
Библиотека кодирования : x264 core 129 r2230 1cffe9f
Настройки программы : cabac=1 / ref=8 / deblock=1:-1:-1 / analyse=0x3:0x133 / me=umh / subme=9 / psy=1 / psy_rd=1.00:0.15 / mixed_ref=1 / me_range=16 / chroma_me=1 / trellis=2 / 8x8dct=1 / cqm=0 / deadzone=21,11 / fast_pskip=1 / chroma_qp_offset=-3 / threads=3 / lookahead_threads=1 / sliced_threads=0 / nr=0 / decimate=1 / interlaced=0 / bluray_compat=0 / constrained_intra=0 / bframes=3 / b_pyramid=2 / b_adapt=2 / b_bias=0 / direct=3 / weightb=1 / open_gop=0 / weightp=2 / keyint=240 / keyint_min=23 / scenecut=40 / intra_refresh=0 / rc_lookahead=60 / rc=2pass / mbtree=1 / bitrate=2400 / ratetol=1.0 / qcomp=0.60 / qpmin=0 / qpmax=69 / qpstep=4 / cplxblur=20.0 / qblur=0.5 / ip_ratio=1.40 / aq=1:1.00
Язык : English
Default : Да
Forced : Нет
Аудио
Идентификатор : 2
Формат : AC-3
Формат/Информация : Audio Coding 3
Расширение режима : CM (complete main)
Параметр Endianness формата : Big
Режим смешивания : Header stripping
Идентификатор кодека : A_AC3
Продолжительность : 1 ч. 39 м.
Вид битрейта : Постоянный
Битрейт : 192 Кбит/сек
Каналы : 2 канала
Расположение каналов : Front: L R
Частота : 48,0 КГц
Битовая глубина : 16 бит
Метод сжатия : С потерями
Размер потока : 137 Мбайт (7%)
Заголовок : Авторский одноголосый (Алексей Багичев)
Язык : Russian
Default : Да
Forced : Нет
Скриншоты: Время раздачи: с 12:00 до 24:00 по Москве (выходные круглосуточно), до 10 скачавших

[Цитировать]



Показать сообщения:    

Текущее время: 10-Дек 23:32

Часовой пояс: UTC + 3


Вы не можете начинать темы
Вы не можете отвечать на сообщения
Вы не можете редактировать свои сообщения
Вы не можете удалять свои сообщения
Вы не можете голосовать в опросах
Вы не можете прикреплять файлы к сообщениям
Вы не можете скачивать файлы

!ВНИМАНИЕ!
Сайт не предоставляет электронные версии произведений, а занимается лишь коллекционированием и каталогизацией ссылок, присылаемых и публикуемых на форуме нашими читателями. Если вы являетесь правообладателем какого-либо представленного материала и не желаете, чтобы ссылка на него находилась в нашем каталоге, свяжитесь с нами, и мы незамедлительно удалим ее. Файлы для обмена на трекере предоставлены пользователями сайта, и администрация не несет ответственности за их содержание. Просьба не заливать файлы, защищенные авторскими правами, а также файлы нелегального содержания!