[ Сегодня идет свободное скачивание без начисления Download ]


Статистика раздачи
Скачал: [ 2 ]
 
   
 
Top  
 
 
Акулье озеро / Shark Lake (2015) BDRip 720p Информация о фильме
Название: Акулье озеро
Оригинальное название: Shark Lake
Год выхода: 2015
Жанр: Триллер
Режиссер: Джерри Дуган
В ролях: Дольф Лундгрен, Сара Малакул Лэйн, Джеймс Чалк, Майкл Аарон Миллиган, Ибрахим Ренно мл., Майлз Долеак, Лэнс Э. Николс, Эли Бардха, Патрик Кернс
О фильме:
Клинт был одним из лучших контрабандистов экзотических видов животных в округе озера Тахо, работал на влиятельного преступного авторитета и старался в одиночку воспитывать маленькую дочь. Однажды копы вышли на него и устроили ночную облаву, но Клинту удалось вырваться на фургоне с ценным грузом. В результате полицейской погони мужчина слетает с дороги в озеро и его арестовывают, а контрабанда исчезает в водной пучине. Задержавшая Клинта женщина-полицейский Мередит Хендрикс - лучший коп департамента шерифа, удочеряет оставшегося без надзора ребёнка и вместе с матерью пытается дать ей лучшую жизнь.

Страна: США
Студия: Bottom Line Entertainment, Parkside Pictures, Tadross Media Group
Продолжительность: 01:32:34
Перевод: Любительский двухголосый, любительский одноголосый
РЕЛИЗ БЕЗ РЕКЛАМЫ!
Файл
Кодек: x264
Качество: BDRip 720p
Видео: MPEG-4 AVC, 5022 Кбит/с, 1280x720, 23.976 кадр/с
Звук:
Аудио#1: Russian: 48 kHz, AC3, 2/0 (L,R) ch, ~192 kbps avg |Любительский двухголосый [Parovoz Production]|
Аудио#2: Russian: 48 kHz, AC3, 3/2 (L,C,R,l,r) + LFE ch, ~448 kbps avg |Любительский одноголосый [Хихикающий доктор]|
Аудио#3: Ukrainian: 48 kHz, AC3, 2/0 (L,R) ch, ~192 kbps avg |Многоголосый закадровый [2+2]|
Аудио#4: English: 48 kHz, DTS, 3/2 (L,C,R,l,r) + LFE ch, ~1509 kbps avg
Субтитры: Английские

MediaInfo

General
Unique ID : 252683054097659457657697296782809756702 (0xBE18FC6CA1BFC7A396BC2AA6A0A9F41E)
Complete name : K:Shark.Lake.2015.BDRip.720p.x264.2xRus.Ukr.Eng.mkv
Format : Matroska
Format version : Version 4 / Version 2
File size : 4.86 GiB
Duration : 1h 32mn
Overall bit rate : 7 513 Kbps
Encoded date : UTC 2017-01-09 15:32:12
Writing application : mkvmerge v8.3.0 ('Over the Horizon') 32bit
Writing library : libebml v1.3.1 + libmatroska v1.4.2
DURATION : 01:32:33.568000000
NUMBER_OF_FRAMES : 173549
NUMBER_OF_BYTES : 133285632
_STATISTICS_WRITING_APP : mkvmerge v8.3.0 ('Over the Horizon') 32bit
_STATISTICS_WRITING_DATE_UTC : 2017-01-09 15:32:12
_STATISTICS_TAGS : BPS DURATION NUMBER_OF_FRAMES NUMBER_OF_BYTES
Attachment : Yes
Video
ID : 1
Format : AVC
Format/Info : Advanced Video Codec
Format profile : High@L4.1
Format settings, CABAC : Yes
Format settings, ReFrames : 9 frames
Codec ID : V_MPEG4/ISO/AVC
Duration : 1h 32mn
Bit rate : 5 022 Kbps
Width : 1 280 pixels
Height : 720 pixels
Display aspect ratio : 16:9
Frame rate mode : Constant
Frame rate : 23.976 fps
Color space : YUV
Chroma subsampling : 4:2:0
Bit depth : 8 bits
Scan type : Progressive
Bits/(Pixel*Frame) : 0.227
Stream size : 3.25 GiB (67%)
Language : English
Default : Yes
Forced : No
Audio #1
ID : 2
Format : AC-3
Format/Info : Audio Coding 3
Mode extension : CM (complete main)
Format settings, Endianness : Big
Codec ID : A_AC3
Duration : 1h 32mn
Bit rate mode : Constant
Bit rate : 192 Kbps
Channel(s) : 2 channels
Channel positions : Front: L R
Sampling rate : 48.0 KHz
Bit depth : 16 bits
Compression mode : Lossy
Stream size : 127 MiB (3%)
Title : Любительский двухголосый [Parovoz Production]
Language : Russian
Default : Yes
Forced : No
Audio #2
ID : 3
Format : AC-3
Format/Info : Audio Coding 3
Mode extension : CM (complete main)
Format settings, Endianness : Big
Codec ID : A_AC3
Duration : 1h 32mn
Bit rate mode : Constant
Bit rate : 448 Kbps
Channel(s) : 6 channels
Channel positions : Front: L C R, Side: L R, LFE
Sampling rate : 48.0 KHz
Bit depth : 16 bits
Compression mode : Lossy
Stream size : 297 MiB (6%)
Title : Любительский одноголосый [Хихикающий доктор]
Language : Russian
Default : No
Forced : No
Audio #3
ID : 4
Format : AC-3
Format/Info : Audio Coding 3
Mode extension : CM (complete main)
Format settings, Endianness : Big
Codec ID : A_AC3
Duration : 1h 32mn
Bit rate mode : Constant
Bit rate : 192 Kbps
Channel(s) : 2 channels
Channel positions : Front: L R
Sampling rate : 48.0 KHz
Bit depth : 16 bits
Compression mode : Lossy
Stream size : 127 MiB (3%)
Title : Многоголосый закадровый [2+2]
Language : Ukrainian
Default : No
Forced : No
Audio #4
ID : 5
Format : DTS
Format/Info : Digital Theater Systems
Mode : 16
Format settings, Endianness : Big
Codec ID : A_DTS
Duration : 1h 32mn
Bit rate mode : Constant
Bit rate : 1 509 Kbps
Channel(s) : 6 channels
Channel positions : Front: L C R, Side: L R, LFE
Sampling rate : 48.0 KHz
Bit depth : 24 bits
Compression mode : Lossy
Stream size : 999 MiB (20%)
Title : Original
Language : English
Default : No
Forced : No
Text
ID : 6
Format : PGS
Muxing mode : zlib
Codec ID : S_HDMV/PGS
Codec ID/Info : The same subtitle format used on BDs/HD-DVDs
Title : English PGS
Language : English
Default : No
Forced : No
Menu
00:00:00.000 : en:00:00:00.000
00:06:08.493 : en:00:06:08.493
00:11:28.980 : en:00:11:28.980
00:18:51.630 : en:00:18:51.630
00:25:00.499 : en:00:25:00.499
00:32:54.431 : en:00:32:54.431
00:43:53.297 : en:00:43:53.297
00:50:50.881 : en:00:50:50.881
00:57:53.011 : en:00:57:53.011
01:06:36.201 : en:01:06:36.201
01:16:29.293 : en:01:16:29.293
01:25:19.489 : en:01:25:19.489

Скриншоты

[Цитировать]



Показать сообщения:    

Текущее время: 25-Июн 06:21

Часовой пояс: UTC + 6


Вы не можете начинать темы
Вы не можете отвечать на сообщения
Вы не можете редактировать свои сообщения
Вы не можете удалять свои сообщения
Вы не можете голосовать в опросах
Вы не можете прикреплять файлы к сообщениям
Вы не можете скачивать файлы

!ВНИМАНИЕ!
Сайт не предоставляет электронные версии произведений, а занимается лишь коллекционированием и каталогизацией ссылок, присылаемых и публикуемых на форуме нашими читателями. Если вы являетесь правообладателем какого-либо представленного материала и не желаете, чтобы ссылка на него находилась в нашем каталоге, свяжитесь с нами, и мы незамедлительно удалим ее. Файлы для обмена на трекере предоставлены пользователями сайта, и администрация не несет ответственности за их содержание. Просьба не заливать файлы, защищенные авторскими правами, а также файлы нелегального содержания!