[ Сегодня идет свободное скачивание без начисления Download ]


Статистика раздачи
Скачал: [ 2 ]
 
   
 
Top  
 
 
Любовник Леди Чаттерлей / Lady Chatterley’s lover (2015) BDRip 1080p Информация о фильме
Название: Любовник Леди Чаттерлей
Оригинальное название: Lady Chatterley’s lover
Год выхода: 2015
Жанр: Драма, мелодрама
Режиссер: Джед Миркурио / Jed Mercurio
В ролях: Холлидей Грейнджер, Ричард Мэдден, Джеймс Нортон, Джоди Комер, Эдвард Холкрофт, Ив Понсонби, Ховард Уорд, Элизабет Райдер, Тони Притчард, Йен Пек
О фильме: Фильм повествует о любовных отношениях Констанс Чаттерлей, жены родовитого сэра Клиффорда Чаттерлей. Отношения между супругами охладевают, когда Клиффорд возвращается с войны. Из-за ранения у него парализована нижняя часть тела. Поначалу жена соглашается на платонические отношениями с мужем, но затем находит утешение в объятиях другого мужчины…

Страна: Великобритания
Студия: Serena Cullen Productions, Hartswood Films, British Broadcasting Corporation (BBC)
Продолжительность: 01:29:05
Перевод : Любительский (двухголосный закадровый) Victory-Films
Cубтитры : Русский, Английский
Контейнер: MKV
Качество: BDRip 1080p
Видео: MPEG-4 AVC, High@L4.1, 9 766 kb/s, 1 920 x 1 080, 25 fps
Аудио 1 : Русский (AAC, 2ch, 224 kb/s, 48.0 KHz) DVO Victory-Films
Аудио 2 : Английский (DTS, 6ch, 768 kb/s, 48.0 KHz)
Субтитры : Russian SRT, English SRT
Навигация по главам: есть
Глобальные тэги: есть

MI

Общее
Уникальный идентификатор : 180109967606901459991614798242239506111 (0x877FEB015F0EB8C1BF9B21D82F3466BF)
Полное имя : D:Lady.Chatterleys.Lover.2015.1080p.BluRay.x264.DTS-FGTЛюбовник Леди Чаттерлей Lady Chatterley’s lover (2015).mkv
Формат : Matroska
Версия формата : Version 4 / Version 2
Размер файла : 6,70 Гбайт
Продолжительность : 1 ч. 29 м.
Общий поток : 10,8 Мбит/сек
Название фильма : Любовник лед
Тип содержимого : Movie
Описание : Любовник леди Чаттерлей
Дата выпуска : 2015-09-06
Дата кодирования : UTC 2017-01-09 19:00:55
Программа кодирования : mkvmerge v9.7.1 ('Pandemonium') 64bit
Библиотека кодирования : libebml v1.3.4 + libmatroska v1.4.5
Обложка : Yes
Attachments : cover.jpg
ACTOR : Richard Madden, Holliday Grainger, James Norton, Howard Ward, Elizabeth Rider, Tony Pritchard, Jodie Comer, Enzo Cilenti, Ian Peck, Eve Ponsonby, Edward Holcroft, Sebastian Gray, Gavin Lee Lewis, Lisa Jay Jenkins, Dylan Jones, Chris Morrison, Katy Ke...
ARTIST : Richard Madden, Holliday Grainger, James Norton, Howard Ward, Elizabeth Rider, Tony Pritchard, Jodie Comer, Enzo Cilenti, Ian Peck, Eve Ponsonby, Edward Holcroft, Sebastian Gray, Gavin Lee Lewis, Lisa Jay Jenkins, Dylan Jones, Chris Morrison, Katy Ke...
DIRECTOR : Джед Миркурио
GENRE : мелодрама, драма
LAW_RATING : R
PRODUCER : Серена Каллен, Диана Бартон, Люси Рише
PRODUCTION_STUDIO : Serena Cullen Productions
SCREENPLAY_BY : Джед Миркурио, Дэвид Герберт Лоуренс
SUMMARY : Любовник леди Чаттерлей
SYNOPSIS : В результате ранения на англо-германской войне сэр Клиффорд Чаттерлей был частично парализован и был вынужден отныне передвигаться на коляске. Это его состояние делало невозможными нормальные сексуальные отношения с молодой красавицей женой Констанс. Конни (так ласково называл жену Чаттерлей) любила мужа и была готова сохранять ему верность, ухаживая за инвалидом. Понимая, что существование молодой женщины без секса ненормально, сэр Клиффорд благородно разрешил ей, если найдётся подходящий мужчина, завести любовника. Он даже был согласен дать ребёнку своё имя, если жена забеременеет. Но произошло то, чего сэр Чаттерлей ожидать никак не мог. Его Конни влюбилась в лесника Оливера Мэллорса.
Видео
Идентификатор : 1
Формат : AVC
Формат/Информация : Advanced Video Codec
Профиль формата : High@L4.1
Параметр CABAC формата : Да
Параметр ReFrames формата : 4 кадра
Идентификатор кодека : V_MPEG4/ISO/AVC
Продолжительность : 1 ч. 29 м.
Битрейт : 9766 Кбит/сек
Ширина : 1920 пикселей
Высота : 1080 пикселей
Соотношение сторон : 16:9
Режим частоты кадров : Постоянный
Частота кадров : 25,000 кадров/сек
Цветовое пространство : YUV
Субдискретизация насыщенности : 4:2:0
Битовая глубина : 8 бит
Тип развёртки : Прогрессивная
Бит/(Пиксели*Кадры) : 0.188
Размер потока : 6,08 Гбайт (91%)
Библиотека кодирования : x264 core 148 r2597 e86f3a1
Настройки программы : cabac=1 / ref=4 / deblock=1:0:0 / analyse=0x3:0x133 / me=umh / subme=7 / psy=1 / psy_rd=1.00:0.00 / mixed_ref=1 / me_range=16 / chroma_me=1 / trellis=1 / 8x8dct=1 / cqm=0 / deadzone=21,11 / fast_pskip=0 / chroma_qp_offset=-2 / threads=12 / lookahead_threads=2 / sliced_threads=0 / nr=0 / decimate=1 / interlaced=0 / bluray_compat=0 / constrained_intra=0 / bframes=3 / b_pyramid=2 / b_adapt=2 / b_bias=0 / direct=3 / weightb=1 / open_gop=0 / weightp=2 / keyint=250 / keyint_min=25 / scenecut=40 / intra_refresh=0 / rc_lookahead=50 / rc=2pass / mbtree=1 / bitrate=9766 / ratetol=1.0 / qcomp=0.60 / qpmin=0 / qpmax=69 / qpstep=4 / cplxblur=20.0 / qblur=0.5 / ip_ratio=1.40 / aq=1:1.00
Язык : English
Default : Да
Forced : Нет
Аудио #1
Идентификатор : 2
Формат : AAC
Формат/Информация : Advanced Audio Codec
Профиль формата : LC
Идентификатор кодека : A_AAC
Продолжительность : 1 ч. 29 м.
Битрейт : 224 Кбит/сек
Каналы : 2 канала
Расположение каналов : Front: L R
Частота : 48,0 КГц
Частота кадров : 46,875 кадров/сек (1024 spf)
Метод сжатия : С потерями
Размер потока : 143 Мбайт (2%)
Заголовок : DVO - Victory-Films
Язык : Russian
Default : Да
Forced : Нет
Аудио #2
Идентификатор : 3
Формат : DTS
Формат/Информация : Digital Theater Systems
Режим : 16
Параметр Endianness формата : Big
Идентификатор кодека : A_DTS
Продолжительность : 1 ч. 29 м.
Вид битрейта : Постоянный
Битрейт : 768 Кбит/сек
Каналы : 6 каналов
Расположение каналов : Front: L C R, Side: L R, LFE
Частота : 48,0 КГц
Частота кадров : 93,750 кадра/сек (512 spf)
Битовая глубина : 24 бит
Метод сжатия : С потерями
Размер потока : 489 Мбайт (7%)
Язык : English
Default : Нет
Forced : Нет
Текст #1
Идентификатор : 4
Формат : UTF-8
Идентификатор кодека : S_TEXT/UTF8
Идентификатор кодека/Информация : UTF-8 Plain Text
Продолжительность : 1 ч. 28 м.
Битрейт : 72 бит/сек
Count of elements : 810
Размер потока : 46,5 Кбайт (0%)
Заголовок : SRT
Язык : Russian
Default : Нет
Forced : Нет
Текст #2
Идентификатор : 5
Формат : UTF-8
Идентификатор кодека : S_TEXT/UTF8
Идентификатор кодека/Информация : UTF-8 Plain Text
Продолжительность : 1 ч. 27 м.
Битрейт : 41 бит/сек
Count of elements : 736
Размер потока : 26,6 Кбайт (0%)
Заголовок : SRT
Язык : English
Default : Да
Forced : Нет
Меню
00:00:00.000 : en:00:00:00.000
00:10:57.480 : en:00:10:57.480
00:21:37.360 : en:00:21:37.360
00:32:50.280 : en:00:32:50.280
00:43:08.280 : en:00:43:08.280
00:56:01.240 : en:00:56:01.240
01:07:34.400 : en:01:07:34.400
01:17:20.920 : en:01:17:20.920

Скриншоты

[Цитировать]



Показать сообщения:    

Текущее время: 19-Фев 17:24

Часовой пояс: UTC + 3


Вы не можете начинать темы
Вы не можете отвечать на сообщения
Вы не можете редактировать свои сообщения
Вы не можете удалять свои сообщения
Вы не можете голосовать в опросах
Вы не можете прикреплять файлы к сообщениям
Вы не можете скачивать файлы

!ВНИМАНИЕ!
Сайт не предоставляет электронные версии произведений, а занимается лишь коллекционированием и каталогизацией ссылок, присылаемых и публикуемых на форуме нашими читателями. Если вы являетесь правообладателем какого-либо представленного материала и не желаете, чтобы ссылка на него находилась в нашем каталоге, свяжитесь с нами, и мы незамедлительно удалим ее. Файлы для обмена на трекере предоставлены пользователями сайта, и администрация не несет ответственности за их содержание. Просьба не заливать файлы, защищенные авторскими правами, а также файлы нелегального содержания!