[ Сегодня идет свободное скачивание без начисления Download ]


Статистика раздачи
Нет
 
   
 
Top  
 
 
-Астерикс и Обеликс в Британии / Asterix et Obelix: Au Service de Sa Majeste (2012) HDRip- Русское название: Астерикс и Обеликс в Британии
Оригинальное название: Asterix et Obelix: Au Service de Sa Majeste
Год выпуска: 2012
Производство: Венгрия, Испания, Италия, Франция
Жанр: Комедия, Приключения, Семейный
Перевод: Дублированный [звук с CamRip]
Дата мировой премьеры: 06.10.12
Дата российской премьеры: 25.10.12
Режиссер: Лоран Тирар
Актеры: Жерар Депардье, Эдуард Баэр, Гийом Гальенн, Венсан Лакост, Валери Лемерсье, Фабрис Лукини, Катрин Денёв, Шарлотта Лебон, Боли Ланнерс, Дэни Бун
Описание фильма:
Пятидесятый год до нашей эры. Юлий Цезарь рвется к новым завоеваниям. Во главе своих прославленных легионов он собирается захватить остров, который находится на самом краю света — таинственную страну, именуемую Британией. Войско Цезаря одерживает быструю и безоговорочную победу. Ну… почти безоговорочную: одна крошечная деревушка продолжает яростно обороняться, однако силы на исходе, и королева бриттов Корделия отправляет офицера Красовакса за подмогой в Галлию. Когда к галлам приезжает Красовакс, те снабжают его бочонком своего знаменитого волшебного зелья, а Астерикс и Обеликс отправляются вместе с ним в Британию. Гадорикса они тоже берут с собой, ведь путешествие — отличный способ пополнить образование молодого человека. Но, к сожалению, все идет не так, как задумывалось…

Продолжительность: 01:50:15
Качество видео: HDRip
Видеокодек: Xvid
Битрейт видео: ~1598 kb/s
Размер кадра: 720x304
Аудиокодек: MP3 2.0
Битрейт аудио: 192 kb/s
Сэмпл: Скачать

MediaInfo

General
Complete name : F:\Asteriks.i.Obeliks.v.Britanii.2012.D.Dc.HDRip.avi
Format : AVI
Format/Info : Audio Video Interleave
File size : 1.39 GiB
Duration : 1h 50mn
Overall bit rate : 1 800 Kbps
Writing application : VirtualDubMod 1.5.10.2 (build 2540/release)
Writing library : VirtualDubMod build 2540/release
Video
ID : 0
Format : MPEG-4 Visual
Format profile : Advanced [email protected]
Format settings, BVOP : 2
Format settings, QPel : No
Format settings, GMC : No warppoints
Format settings, Matrix : Default (H.263)
Muxing mode : Packed bitstream
Codec ID : XVID
Codec ID/Hint : XviD
Duration : 1h 50mn
Bit rate : 1 598 Kbps
Width : 720 pixels
Height : 304 pixels
Display aspect ratio : 2.35:1
Frame rate : 23.976 fps
Color space : YUV
Chroma subsampling : 4:2:0
Bit depth : 8 bits
Scan type : Progressive
Compression mode : Lossy
Bits/(Pixel*Frame) : 0.305
Stream size : 1.23 GiB (89%)
Writing library : XviD 64
Audio
ID : 1
Format : MPEG Audio
Format version : Version 1
Format profile : Layer 3
Codec ID : 55
Codec ID/Hint : MP3
Duration : 1h 50mn
Bit rate mode : Constant
Bit rate : 192 Kbps
Channel(s) : 2 channels
Sampling rate : 48.0 KHz
Compression mode : Lossy
Stream size : 151 MiB (11%)
Alignment : Aligned on interleaves
Interleave, duration : 42 ms (1.00 video frame)
Interleave, preload duration : 504 ms
Скриншоты:

Время раздачи: 24/7

[Цитировать]



Показать сообщения:    

Текущее время: 05-Дек 11:36

Часовой пояс: UTC + 3


Вы не можете начинать темы
Вы не можете отвечать на сообщения
Вы не можете редактировать свои сообщения
Вы не можете удалять свои сообщения
Вы не можете голосовать в опросах
Вы не можете прикреплять файлы к сообщениям
Вы не можете скачивать файлы

!ВНИМАНИЕ!
Сайт не предоставляет электронные версии произведений, а занимается лишь коллекционированием и каталогизацией ссылок, присылаемых и публикуемых на форуме нашими читателями. Если вы являетесь правообладателем какого-либо представленного материала и не желаете, чтобы ссылка на него находилась в нашем каталоге, свяжитесь с нами, и мы незамедлительно удалим ее. Файлы для обмена на трекере предоставлены пользователями сайта, и администрация не несет ответственности за их содержание. Просьба не заливать файлы, защищенные авторскими правами, а также файлы нелегального содержания!