[ Сегодня идет свободное скачивание без начисления Download ]


Статистика раздачи
Скачал: [ 1 ]
 
   
 
Top  
 
 
Крылья [01-04 из 04] (2016) Информация о фильме
Название: Крылья
Год выхода: 2016
Жанр: Мелодрама
Режиссер: Александр Аравин
В ролях: Анна Банщикова, Илья Древнов, Татьяна Ташкова, Анастасия Тимушкова, Алексей Медведев, Екатерина Кульчицкая, Алексей Овсянников, Андрей Шишков (II), Елена Муравьёва, Ольга Милоянина, Антон Ушаков, Сергей Ефремов (IV), Анастасия Аравина, Сергей Цимбаленко, Людмила Князева, Елена Симони, Валерий Иваков
О фильме:
Людмиле 38 лет. Сорокалетие не за горами, и оглядываясь на свою жизнь, она понимает – вспомнить ей особо нечего. Единственные проблески в череде серых будней, состоящих из случайных подработок в качестве медсестры, ухода за больной матерью и воспитанием дочери – это редкие визиты домой мужа Николая, который работает дальнобойщиком. Люда, привыкшая находить плюсы во всех ситуациях, вполне довольна своей судьбой, хотя порой тоскует по яркой молодости и несбывшейся мечте. Ход ее размеренной жизни нарушается в одночасье: Николай присылает письмо, в котором сообщает, что встретил в Москве другую женщину и уходит из семьи. Людмила едет в столицу, чтобы вернуть мужа, но неожиданно становится частью необыкновенного плана одного загадочного и нелюдимого человека, который осуществляет ее мечту и дарит ей крылья.

Страна: Россия
Студия: Кинокомпания «Марс Медиа» по заказу телеканала ТВЦ
Продолжительность: 4 х ~ 00:45:00
Перевод: Не требуется
Файл
Кодек: h.264
Качество: WEB-DL 1080p
Видео: MPEG-4 AVC, 5120 Кбит/с, 1920x1080
Звук: Русский (AC3, 2 ch, 192 Кбит/с)
Субтитры: Нет
Семпл

MI

General
Unique ID : 201734721600325574648895944693774809168 (0x97C4B1B189CBCFF095BCD4C3FFB7F850)
Complete name : D:uTorrentKrylja.2016.WEB-DL.1080p.MediaCLubKrylja.(02.iz.04).2016.WEB-DL.1080p.MediaClub.mkv
Format : Matroska
Format version : Version 4 / Version 2
File size : 1.63 GiB
Duration : 43 min 55 s
Overall bit rate : 5 307 kb/s
Encoded date : UTC 2017-01-06 12:14:02
Writing application : mkvmerge v9.7.1 ('Pandemonium') 64bit
Writing library : libebml v1.3.4 + libmatroska v1.4.5
Video
ID : 1
Format : AVC
Format/Info : Advanced Video Codec
Format profile : High@L4
Format settings, CABAC : Yes
Format settings, ReFrames : 4 frames
Codec ID : V_MPEG4/ISO/AVC
Duration : 43 min 54 s
Bit rate : 5 120 kb/s
Width : 1 920 pixels
Height : 1 080 pixels
Display aspect ratio : 16:9
Frame rate mode : Constant
Frame rate : 25.000 FPS
Color space : YUV
Chroma subsampling : 4:2:0
Bit depth : 8 bits
Scan type : Progressive
Bits/(Pixel*Frame) : 0.099
Stream size : 1.57 GiB (96%)
Title : WEB-DL by Silverok
Writing library : x264 core 142
Encoding settings : cabac=1 / ref=3 / deblock=1:0:0 / analyse=0x3:0x113 / me=hex / subme=7 / psy=1 / psy_rd=1.00:0.00 / mixed_ref=1 / me_range=16 / chroma_me=1 / trellis=1 / 8x8dct=1 / cqm=0 / deadzone=21,11 / fast_pskip=1 / chroma_qp_offset=-2 / threads=48 / lookahead_threads=8 / sliced_threads=0 / nr=0 / decimate=1 / interlaced=0 / bluray_compat=0 / constrained_intra=0 / bframes=6 / b_pyramid=2 / b_adapt=1 / b_bias=0 / direct=1 / weightb=1 / open_gop=0 / weightp=2 / keyint=200 / keyint_min=20 / scenecut=0 / intra_refresh=0 / rc_lookahead=40 / rc=2pass / mbtree=1 / bitrate=5120 / ratetol=1.0 / qcomp=0.60 / qpmin=0 / qpmax=69 / qpstep=4 / cplxblur=20.0 / qblur=0.5 / vbv_maxrate=7680 / vbv_bufsize=20480 / nal_hrd=none / filler=0 / ip_ratio=1.40 / aq=1:1.00
Default : Yes
Forced : No
Audio
ID : 2
Format : AC-3
Format/Info : Audio Coding 3
Mode extension : CM (complete main)
Format settings, Endianness : Big
Codec ID : A_AC3
Duration : 43 min 55 s
Bit rate mode : Constant
Bit rate : 192 kb/s
Channel(s) : 2 channels
Channel positions : Front: L R
Sampling rate : 48.0 kHz
Frame rate : 31.250 FPS (1536 spf)
Compression mode : Lossy
Stream size : 60.3 MiB (4%)
Language : Russian
Default : Yes
Forced : No

Скриншоты

[Цитировать]



Показать сообщения:    

Текущее время: 25-Апр 12:42

Часовой пояс: UTC + 6


Вы не можете начинать темы
Вы не можете отвечать на сообщения
Вы не можете редактировать свои сообщения
Вы не можете удалять свои сообщения
Вы не можете голосовать в опросах
Вы не можете прикреплять файлы к сообщениям
Вы не можете скачивать файлы

!ВНИМАНИЕ!
Сайт не предоставляет электронные версии произведений, а занимается лишь коллекционированием и каталогизацией ссылок, присылаемых и публикуемых на форуме нашими читателями. Если вы являетесь правообладателем какого-либо представленного материала и не желаете, чтобы ссылка на него находилась в нашем каталоге, свяжитесь с нами, и мы незамедлительно удалим ее. Файлы для обмена на трекере предоставлены пользователями сайта, и администрация не несет ответственности за их содержание. Просьба не заливать файлы, защищенные авторскими правами, а также файлы нелегального содержания!