[ Сегодня идет свободное скачивание без начисления Download ]


Статистика раздачи
Нет
 
   
 
Top  
 
 
-8 женщин / 8 femmes (2002) BDRip- Русское название: 8 женщин
Оригинальное название: 8 femmes
Год выпуска: 2002
Страна: Франция, Италия
Слоган: «Одна из них - убийца. Кто?»
Жанр: мюзикл, комедия, криминал, детектив--Режиссер: Франсуа Озон
Актеры: Даниель Дарьё (Mamy), Катрин Денёв (Gaby), Изабель Юппер (Augustine), Эммануэль Беар (Louise), Фанни Ардан (Pierrette), Виржини Ледуайен (Suzon), Людивин Санье (Catherine), Фирмин Ришар (Madame Chanel), Доминик Ламюр (Marcel, the husband)
Дублёры: Ольга Сирина (Mamy), Анна Каменкова (Gaby), Надежда Бутырцева (Augustine), Ольга Голованова (Louise), Ольга Гаспарова (Pierrette), Лариса Некипелова (Suzon), Татьяна Весёлкина (Catherine), Светлана Старикова (Madame Chanel)-Описание фильма: Занесенная снегом Французская глубинка. В Поместье собирается семья для встречи рождества. Но праздник не состоится. Хозяин дома убит. 8 женщин, близких хозяину дома начинают расследование. Каждая из них под подозрением. У каждой есть мотив для убийства. День расследования открывает многие семейные тайны, которые были под семью замками.- -Продолжительность: 01:50:37
Перевод: Дублированный
Язык субтитров: Русские, английские
Вид субтитров: Вшитые отключаемые--Качество видео: BDRip
Видеокодек: MPEG-4 AVC/H.264
Битрейт видео: ~5010 Кбит/с
Размер кадра: 1280x694
Аудио 1: Русский: AC3; 5.1; 48 kHz; ~448 kbps
Аудио 2: Французский: AC3; 5.1; 48 kHz; ~640 kbps-

MediaInfo:

General
Unique ID : 183436346823244002770491946520309247873 (0x8A008E29AFCC9B3D871B8907FB8DAF81)
Complete name : G:\8.femmes.2002.720p.BDRip.mkv
Format : Matroska
Format version : Version 2
File size : 4.71 GiB
Duration : 1h 50mn
Overall bit rate : 6 100 Kbps
Encoded date : UTC 2012-02-25 21:21:39
Writing application : mkvmerge v4.9.1 ('Ich will') сборка от Jul 11 2011 23:53:15
Writing library : libebml v1.2.1 + libmatroska v1.1.1
Video
ID : 1
Format : AVC
Format/Info : Advanced Video Codec
Format profile : High@L4.1
Format settings, CABAC : Yes
Format settings, ReFrames : 9 frames
Codec ID : V_MPEG4/ISO/AVC
Duration : 1h 50mn
Bit rate : 5 010 Kbps
Width : 1 280 pixels
Height : 694 pixels
Display aspect ratio : 1.85:1
Frame rate : 24.000 fps
Color space : YUV
Chroma subsampling : 4:2:0
Bit depth : 8 bits
Scan type : Progressive
Bits/(Pixel*Frame) : 0.235
Stream size : 3.78 GiB (80%)
Title : 8.femmes.2002.720p.BluRay.DD5.1.x264-CRiSC
Writing library : x264 core 120 r2146 bcd41db
Encoding settings : cabac=1 / ref=9 / deblock=1:-3:-3 / analyse=0x3:0x133 / me=tesa / subme=11 / psy=1 / psy_rd=0.90:0.05 / mixed_ref=1 / me_range=24 / chroma_me=1 / trellis=2 / 8x8dct=1 / cqm=0 / deadzone=21,11 / fast_pskip=0 / chroma_qp_offset=-3 / threads=12 / sliced_threads=0 / nr=0 / decimate=0 / interlaced=0 / bluray_compat=0 / constrained_intra=0 / bframes=10 / b_pyramid=2 / b_adapt=2 / b_bias=0 / direct=3 / weightb=1 / open_gop=0 / weightp=2 / keyint=250 / keyint_min=24 / scenecut=40 / intra_refresh=0 / rc_lookahead=40 / rc=2pass / mbtree=0 / bitrate=5010 / ratetol=1.0 / qcomp=0.60 / qpmin=0 / qpmax=69 / qpstep=4 / cplxblur=20.0 / qblur=0.5 / vbv_maxrate=50000 / vbv_bufsize=62500 / nal_hrd=none / ip_ratio=1.40 / pb_ratio=1.30 / aq=1:0.80
Language : French
Default : Yes
Forced : No
Color primaries : BT.709-5, BT.1361, IEC 61966-2-4, SMPTE RP177
Transfer characteristics : BT.709-5, BT.1361
Matrix coefficients : BT.709-5, BT.1361, IEC 61966-2-4 709, SMPTE RP177
Audio #1
ID : 2
Format : AC-3
Format/Info : Audio Coding 3
Mode extension : CM (complete main)
Format settings, Endianness : Big
Codec ID : A_AC3
Duration : 1h 50mn
Bit rate mode : Constant
Bit rate : 448 Kbps
Channel(s) : 6 channels
Channel positions : Front: L C R, Side: L R, LFE
Sampling rate : 48.0 KHz
Bit depth : 16 bits
Compression mode : Lossy
Stream size : 354 MiB (7%)
Title : Дубляж
Language : Russian
Default : Yes
Forced : No
Audio #2
ID : 3
Format : AC-3
Format/Info : Audio Coding 3
Mode extension : CM (complete main)
Format settings, Endianness : Big
Codec ID : A_AC3
Duration : 1h 50mn
Bit rate mode : Constant
Bit rate : 640 Kbps
Channel(s) : 6 channels
Channel positions : Front: L C R, Side: L R, LFE
Sampling rate : 48.0 KHz
Bit depth : 16 bits
Compression mode : Lossy
Stream size : 506 MiB (10%)
Language : French
Default : No
Forced : No
Text #1
ID : 4
Format : UTF-8
Codec ID : S_TEXT/UTF8
Codec ID/Info : UTF-8 Plain Text
Language : Russian
Default : No
Forced : No
Text #2
ID : 5
Format : UTF-8
Codec ID : S_TEXT/UTF8
Codec ID/Info : UTF-8 Plain Text
Language : English
Default : No
Forced : No
Menu
00:00:00.000 : en:00:00:00.000
00:10:01.792 : en:00:10:01.792
00:19:38.417 : en:00:19:38.417
00:29:01.917 : en:00:29:01.917
00:39:42.625 : en:00:39:42.625
00:48:25.542 : en:00:48:25.542
00:59:46.917 : en:00:59:46.917
01:09:12.958 : en:01:09:12.958
01:18:51.500 : en:01:18:51.500
01:26:23.792 : en:01:26:23.792
01:36:55.875 : en:01:36:55.875
01:46:54.542 : en:01:46:54.542
-Скриншоты:
-Время раздачи: С 09:00 до 24:00

[Цитировать]



Показать сообщения:    

Текущее время: 10-Дек 08:08

Часовой пояс: UTC + 3


Вы не можете начинать темы
Вы не можете отвечать на сообщения
Вы не можете редактировать свои сообщения
Вы не можете удалять свои сообщения
Вы не можете голосовать в опросах
Вы не можете прикреплять файлы к сообщениям
Вы не можете скачивать файлы

!ВНИМАНИЕ!
Сайт не предоставляет электронные версии произведений, а занимается лишь коллекционированием и каталогизацией ссылок, присылаемых и публикуемых на форуме нашими читателями. Если вы являетесь правообладателем какого-либо представленного материала и не желаете, чтобы ссылка на него находилась в нашем каталоге, свяжитесь с нами, и мы незамедлительно удалим ее. Файлы для обмена на трекере предоставлены пользователями сайта, и администрация не несет ответственности за их содержание. Просьба не заливать файлы, защищенные авторскими правами, а также файлы нелегального содержания!