[ Сегодня идет свободное скачивание без начисления Download ]


Статистика раздачи
Нет
 
   
 
Top  
 
 
-Мастер / The Master (2012) [1080p] BDRip- Русское название: Мастер
Оригинальное название: The Master
Год выпуска: 2012
Производство: США / Annapurna Pictures, Ghoulardi Film Company, The Weinstein Company LLC
Жанр: Драма
Перевод: Дублированный [Чистый звук]
Субтитры: Вшитые отключаемые
Язык субтитров: Русский, Английский
Дата мировой премьеры: 1 сентября 2012
Дата российской премьеры: 14 февраля 2013, «Вольга»
Дата выхода DVD релиза: Нет информации
Режиссер: Пол Томас Андерсон
Актеры: Хоакин Феникс, Филип Сеймур Хоффман, Эми Адамс, Лора Дерн, Джесси Племонс, Эмбир Чайлдерс, Рами Малек, Мартин Д. Дью, Кевин Дж. О’Коннор, Патриция МакКормак
Описание фильма:
Демобилизованный моряк с загадочным прошлым не может найти места в послевоенной Америке. Он меняет одну работу за другой, пока случайно не знакомится с харизматичным создателем религиозного культа, известным писателем и философом. К удивлению приверженцев модного учения, их гуру делает агрессивного маргинала своим ближайшим помощником. По мере того как новая вера завоевывает поклонников, бывший бродяга начинает задаваться вопросами о том, во что он верит, и кем является его наставник на самом деле. Но некоторым тайнам лучше оставаться нераскрытыми…- -Продолжительность: 02:17:30
Качество видео: BDRip
Видеокодек: MPEG-4 AVC/H.264
Битрейт видео: ~13.8 Mb/s
Размер кадра: 1920x1036
Аудиокодек: AC3, DTS
Аудио 1: Русский, AC3 5.1, 448 kbps, |Дубляж|
Аудио 2: Английский, DTS 5.1, 1509 kb/s

Сэмпл: Скачать

MediaInfo:

Формат : Matroska
Версия формата : Version 2
Размер файла : 15,4 Гбайт
Продолжительность : 2 ч. 17 м.
Общий поток : 16,0 Мбит/сек
Название фильма : The Master (2012) - Release for HDBITS by Skazhutin
Дата кодирования : UTC 2013-02-13 11:05:52
Программа кодирования : mkvmerge v5.6.0 ('Kenya Kane') built on May 27 2012 16:44:04
Библиотека кодирования : libebml v1.2.3 + libmatroska v1.3.0
Attachment : Yes / Yes
Видео
Идентификатор : 1
Формат : AVC
Формат/Информация : Advanced Video Codec
Профиль формата : High@L4.1
Параметр CABAC формата : Да
Параметр ReFrames формата : 4 кадра
Идентификатор кодека : V_MPEG4/ISO/AVC
Продолжительность : 2 ч. 17 м.
Битрейт : 13,8 Мбит/сек
Ширина : 1920 пикселей
Высота : 1036 пикселей
Соотношение сторон : 1,85:1
Режим частоты кадров : Постоянный
Частота кадров : 23,976 кадра/сек
Цветовое пространство : YUV
Субдискретизация насыщенности : 4:2:0
Битовая глубина : 8 бит
Тип развёртки : Прогрессивная
Бит/(Пиксели*Кадры) : 0.288
Размер потока : 13,2 Гбайт (86%)
Заголовок : Release for HDBITS
Библиотека кодирования : x264 core 129 r2245kMod bc13772
Настройки программы : cabac=1 / ref=4 / deblock=1:-3:-3 / analyse=0x3:0x113 / me=umh / subme=11 / psy=1 / fade_compensate=0.00 / psy_rd=1.00:0.00 / mixed_ref=1 / me_range=48 / chroma_me=1 / trellis=2 / 8x8dct=1 / cqm=0 / deadzone=21,11 / fast_pskip=1 / chroma_qp_offset=-2 / threads=12 / lookahead_threads=2 / sliced_threads=0 / nr=0 / decimate=1 / interlaced=0 / bluray_compat=0 / constrained_intra=0 / bframes=11 / b_pyramid=2 / b_adapt=2 / b_bias=0 / direct=3 / weightb=1 / open_gop=0 / weightp=2 / keyint=250 / keyint_min=23 / scenecut=40 / intra_refresh=0 / rc_lookahead=40 / rc=crf / mbtree=0 / crf=17.0000 / qcomp=0.70 / qpmin=0 / qpmax=69 / qpstep=4 / vbv_maxrate=50000 / vbv_bufsize=62500 / crf_max=0.0 / nal_hrd=none / ip_ratio=1.25 / pb_ratio=1.15 / aq=1:0.75
Язык : English
Default : Да
Forced : Нет
Коэффициенты матрицы : BT.709
Аудио #1
Идентификатор : 2
Формат : AC-3
Формат/Информация : Audio Coding 3
Расширение режима : CM (complete main)
Параметр Endianness формата : Big
Идентификатор кодека : A_AC3
Продолжительность : 2 ч. 17 м.
Вид битрейта : Постоянный
Битрейт : 448 Кбит/сек
Каналы : 6 каналов
Расположение каналов : Front: L C R, Side: L R, LFE
Частота : 48,0 КГц
Битовая глубина : 16 бит
Метод сжатия : С потерями
Размер потока : 441 Мбайт (3%)
Язык : Russian
Default : Да
Forced : Нет
Аудио #2
Идентификатор : 3
Формат : DTS
Формат/Информация : Digital Theater Systems
Режим : 16
Параметр Endianness формата : Big
Идентификатор кодека : A_DTS
Продолжительность : 2 ч. 17 м.
Вид битрейта : Постоянный
Битрейт : 1509 Кбит/сек
Каналы : 6 каналов
Расположение каналов : Front: L C R, Side: L R, LFE
Частота : 48,0 КГц
Битовая глубина : 24 бит
Метод сжатия : С потерями
Размер потока : 1,45 Гбайт (9%)
Язык : English
Default : Нет
Forced : Нет
Текст #1
Идентификатор : 4
Формат : UTF-8
Идентификатор кодека : S_TEXT/UTF8
Идентификатор кодека/Информация : UTF-8 Plain Text
Язык : English
Default : Нет
Forced : Нет
Текст #2
Идентификатор : 5
Формат : UTF-8
Идентификатор кодека : S_TEXT/UTF8
Идентификатор кодека/Информация : UTF-8 Plain Text
Язык : Russian
Default : Да
Forced : Нет
Меню
00:00:00.000 : en:00:00:00.000
00:17:31.216 : en:00:17:31.217
00:36:38.446 : en:00:36:38.446
00:54:55.125 : en:00:54:55.125
01:16:39.219 : en:01:16:39.220
01:34:52.228 : en:01:34:52.228
01:47:17.848 : en:01:47:17.848
01:55:45.521 : en:01:55:45.522

Знаете ли вы что.....

Джереми Реннер рассматривался на роль Фредди Саттона.
В интервью журналу Newsweek режиссер признался, что в «Мастере» есть ряд сцен, написанных для «Нефти», но не попавших в финальный сценарий, а также истории Джейсона Робардса о его запоях в ВМФ во время Второй мировой, которые актер рассказывал на съемках «Магнолии». Фермерское прошлое Фредди взято из жизни писателя Джона Стейнбека. Кроме того, Андерсона всегда интересовала история Рона Л. Хаббарда, но режиссер не хотел снимать фильм непосредственно о лидере сайентологов. Андерсону хотелось исследовать послевоенное время, благоприятствующее зарождению разного рода духовных движений.
Риз Уизерспун рассматривалась на роль Пегги во время продакшна в 2010 году. Но в итоге роль досталась Эми Адамс.
Первый фильм Пола Томаса Андерсона, в котором Роберт Элсвит не работал оператором. Он был занят и на тот момент занимался съемками фильма «Эволюция Борна» (2012).
Первый художественный фильм за последние 16 лет, полностью снятый в формате 65мм, с использованием камеры Panavision System 65. Последний полнометражный фильм аналогичного формата был фильм «Гамлет» (1996) режиссера Кеннета Брэны.
Большое влияние на создание этого фильма оказала документальная лента Джона Хьюстона — «Да будет свет» (1946). Режиссер Пол Томас Андерсон подтвердил, что использовал материалы из этого фильма. Продюсер Джоэнн Селлар так же говорил, что они ориентировались на этот фильм, проектируя декорации и создавая дизайн костюмов.
Пол Томас Андерсон при создании фильма не использовал Digital Intermediate, а вместо этого сделал цветокоррекцию с фотохимической обработкой, что в результате дало более высокое разрешение благодаря меньшим манипуляциям над уже отснятым материалом.
Карточки теста Роршаха в сцене с психологом в больнице на самом деле настоящие. Однако психолог пропускает карты с первой по четвертую, тем самым нарушая строгие правила проведения этого теста.
Судно в фильме имеет название «Alithia», что в переводе с греческого означает «Правда».
Пол Томас Андерсон первоначально хотел снять своих детей в этом фильме, в сцене в портретной студии, но решил этого не делать, потому что его дети смешанной расы выглядели несоответствующими тому времени.
Когда Фредди впервые посещает дом Дорис, на общем плане видны алюминиевые цифры, указывающие номер улицы. Такие цифры появились только в 1960-х годах.
В сцене, где Фредди от деревянной панели к окну и обратно, второй раз, когда он идет к панели, он яростно бьет ее и ломает. В последующих сценах эта панель выглядит нетронутой.
Когда скептик оспаривает Ланкастера, на стене за Ланкастером видна тень от микрофона.
Архитектурный стиль дома в Филадельфии, в котором останавливаются герои, известен как калифорнийский, и таких домов не найти ни в самой Филадельфии, ни рядом с ней.
Скриншоты:

Время раздачи: Круглосуточно (до 10 скачавших)

[Цитировать]

Топик был перенесен из форума Новинки кинопроката (HD Video) в форум Зарубежное кино (HD Video)
Bootch



Показать сообщения:    

Текущее время: 18-Янв 23:19

Часовой пояс: UTC + 3


Вы не можете начинать темы
Вы не можете отвечать на сообщения
Вы не можете редактировать свои сообщения
Вы не можете удалять свои сообщения
Вы не можете голосовать в опросах
Вы не можете прикреплять файлы к сообщениям
Вы не можете скачивать файлы

!ВНИМАНИЕ!
Сайт не предоставляет электронные версии произведений, а занимается лишь коллекционированием и каталогизацией ссылок, присылаемых и публикуемых на форуме нашими читателями. Если вы являетесь правообладателем какого-либо представленного материала и не желаете, чтобы ссылка на него находилась в нашем каталоге, свяжитесь с нами, и мы незамедлительно удалим ее. Файлы для обмена на трекере предоставлены пользователями сайта, и администрация не несет ответственности за их содержание. Просьба не заливать файлы, защищенные авторскими правами, а также файлы нелегального содержания!