[ Сегодня идет свободное скачивание без начисления Download ]


Статистика раздачи
Нет
 
   
 
Top  
 
 
Мачо и ботан / 21 Jump Street Год выпуска: 2012
Страна: США
Производство: Columbia Pictures, Relativity Media, Metro-Goldwyn-Mayer (MGM), Original Film
Жанр: Комедия,Боевик, Криминал
Режиссер: Фил Лорд, Крис Миллер
В ролях: Джона Хилл, Ченнинг Татум, Бри Ларсон, Дэйв Франко, Роб Риггл, Айс Кьюб, ДеРэй Дэвис, Дакс Флэйм, Крис Парнелл, Элли Кемпер
Перевод: Профессиональный (полное дублирование)
Субтитры: Отсутствуют
Описание: Двое новоиспеченных горе-полицейских отправляются на сверхсекретное задание. Им предстоит заново стать учениками средней школы, в которой процветает наркоторговля.
[kp]413080[/kp] [imdb]tt1232829[/imdb]
Качество: DVDRip
Продолжительность: 01:45:30
Формат: AVI
Видео кодек: XviD
Аудио кодек: MP3
Видео: 720x304 (2.37:1), 25 fps, XviD build 47 ~846 kbps avg, 0.28 bit/pixel
Аудио: 48 kHz, MPEG Layer 3, 2 ch, ~384 kbps avg

Media Info

General
Complete name                    : I:\Фильмы и сериалы\Мачо и ботан.avi
Format                           : AVI
Format/Info                      : Audio Video Interleave
File size                        : 745 MiB
Duration                         : 1h 45mn
Overall bit rate                 : 987 Kbps
Movie name                       : Macho.i.botan.2012.D.DVDRip
Director                         : ELEKTRO-Am
Genre                            : Comedy
Writing application              : Lavf52.94.0
Original source form/Name        : Movie
Copyright                        : ELEKTRI4KA
Video
Format                           : xvid
Codec ID                         : xvid
Duration                         : 1h 45mn
Bit rate                         : 846 Kbps
Width                            : 720 pixels
Height                           : 304 pixels
Display aspect ratio             : 2.35:1
Frame rate                       : 25.000 fps
Resolution                       : 24 bits
Bits/(Pixel*Frame)               : 0.155
Stream size                      : 638 MiB (86%)
Audio
ID                               : 1
Format                           : MPEG Audio
Format version                   : Version 1
Format profile                   : Layer 3
Codec ID                         : 55
Codec ID/Hint                    : MP3
Duration                         : 1h 45mn
Bit rate mode                    : Constant
Bit rate                         : 128 Kbps
Channel(s)                       : 2 channels
Sampling rate                    : 48.0 KHz
Resolution                       : 16 bits
Stream size                      : 96.6 MiB (13%)
Alignment                        : Aligned on interleaves
Interleave, duration             : 24 ms (0.60 video frame)
Writing library                  : LAME3.98.4

Скриншоты



[Цитировать]



Показать сообщения:    

Текущее время: 08-Дек 18:59

Часовой пояс: UTC + 3


Вы не можете начинать темы
Вы не можете отвечать на сообщения
Вы не можете редактировать свои сообщения
Вы не можете удалять свои сообщения
Вы не можете голосовать в опросах
Вы не можете прикреплять файлы к сообщениям
Вы не можете скачивать файлы

!ВНИМАНИЕ!
Сайт не предоставляет электронные версии произведений, а занимается лишь коллекционированием и каталогизацией ссылок, присылаемых и публикуемых на форуме нашими читателями. Если вы являетесь правообладателем какого-либо представленного материала и не желаете, чтобы ссылка на него находилась в нашем каталоге, свяжитесь с нами, и мы незамедлительно удалим ее. Файлы для обмена на трекере предоставлены пользователями сайта, и администрация не несет ответственности за их содержание. Просьба не заливать файлы, защищенные авторскими правами, а также файлы нелегального содержания!