[ Today is free to download without increasing Download ]

DL-List and Torrent activity
Мачо и ботан / 21 Jump Street Год выпуска: 2012
Страна: США
Производство: Columbia Pictures, Relativity Media, Metro-Goldwyn-Mayer (MGM), Original Film
Жанр: Комедия,Боевик, Криминал
Режиссер: Фил Лорд, Крис Миллер
В ролях: Джона Хилл, Ченнинг Татум, Бри Ларсон, Дэйв Франко, Роб Риггл, Айс Кьюб, ДеРэй Дэвис, Дакс Флэйм, Крис Парнелл, Элли Кемпер
Перевод: Профессиональный (полное дублирование)
Субтитры: Отсутствуют
Описание: Двое новоиспеченных горе-полицейских отправляются на сверхсекретное задание. Им предстоит заново стать учениками средней школы, в которой процветает наркоторговля.
[kp]413080[/kp] [imdb]tt1232829[/imdb]
Качество: DVDRip
Продолжительность: 01:45:30
Формат: AVI
Видео кодек: XviD
Аудио кодек: MP3
Видео: 720x304 (2.37:1), 25 fps, XviD build 47 ~846 kbps avg, 0.28 bit/pixel
Аудио: 48 kHz, MPEG Layer 3, 2 ch, ~384 kbps avg

Media Info

Complete name                    : I:\Фильмы и сериалы\Мачо и ботан.avi
Format                           : AVI
Format/Info                      : Audio Video Interleave
File size                        : 745 MiB
Duration                         : 1h 45mn
Overall bit rate                 : 987 Kbps
Movie name                       : Macho.i.botan.2012.D.DVDRip
Director                         : ELEKTRO-Am
Genre                            : Comedy
Writing application              : Lavf52.94.0
Original source form/Name        : Movie
Copyright                        : ELEKTRI4KA
Format                           : xvid
Codec ID                         : xvid
Duration                         : 1h 45mn
Bit rate                         : 846 Kbps
Width                            : 720 pixels
Height                           : 304 pixels
Display aspect ratio             : 2.35:1
Frame rate                       : 25.000 fps
Resolution                       : 24 bits
Bits/(Pixel*Frame)               : 0.155
Stream size                      : 638 MiB (86%)
ID                               : 1
Format                           : MPEG Audio
Format version                   : Version 1
Format profile                   : Layer 3
Codec ID                         : 55
Codec ID/Hint                    : MP3
Duration                         : 1h 45mn
Bit rate mode                    : Constant
Bit rate                         : 128 Kbps
Channel(s)                       : 2 channels
Sampling rate                    : 48.0 KHz
Resolution                       : 16 bits
Stream size                      : 96.6 MiB (13%)
Alignment                        : Aligned on interleaves
Interleave, duration             : 24 ms (0.60 video frame)
Writing library                  : LAME3.98.4



Display posts:    

Current time is: 27-Oct 02:09

All times are UTC + 3

You cannot post new topics in this forum
You cannot reply to topics in this forum
You cannot edit your posts in this forum
You cannot delete your posts in this forum
You cannot vote in polls in this forum
You cannot attach files in this forum
You cannot download files in this forum

The site does not give electronic versions of products, and is engaged only in a collecting and cataloguing of the references sent and published at a forum by our readers. If you are the legal owner of any submitted material and do not wish that the reference to it was in our catalogue, contact us and we shall immediately remove her. Files for an exchange on tracker are given by users of a site, and the administration does not bear the responsibility for their maintenance. The request to not fill in the files protected by copyrights, and also files of the illegal maintenance!