[ Сегодня идет свободное скачивание без начисления Download ]


Статистика раздачи
Нет
 
   
 
Top  
 
 
Любовники пустыни / Amantes del Desierto
Год выпуска: 2001
Страна: Колумбия-США
Производство: Telemundo, RTI Colombia, Caracol
Жанр: Теленовелла
Серии (количество): 1-121 (121)
Продолжительность: 00:43:00
Перевод: профессиональный многоголосый закадровый
Субтитры: отсутствуют
Режиссёр: Давид Посада, Агустин Рестрепо
В ролях: Франсиско Гатторно, Маритца Родригез, Роберто Эскобар, Катрин Сиачоке, Ана Солер, Эдгардо Роман, Хуан Пабло Шук, Роландо Тарахано
Описание: События этой теленовелы происходят в 50-60-ые годы двадцатого столетия: Андрес Бустаманте, молодой доктор, не имеющий возможности практиковать из-за отсутствия денег для покупки лицензии. Пытаясь собрать необходимую сумму, он лечит соседей. Его офис находится в квартире, где он живет вместе с матерью Еленой, вдовой, вырастившей сына с большим трудом и пожертвовавшей ради него многим.
Из-за постоянной нехватки денег им никак не удаётся выкупить закладную на квартиру, и их собственность в любой момент может перейти в руки Рафаэля Негрета, скупого и бессердечного человека, одолжившего им деньги и постоянно поднимающего процентные ставки выплат.
Очередной визит Рафаэля в дом Бустманте заканчивается скандалом. Андрес теряет над собой контроль и выгоняет ростовщика из дома. Вскоре того убивают и подозрение в совершении этого преступления падает на Андреса. Юношу отдают под суд и он получает пожизненный срок, который отбывает в тюрьме 'Хедлэнд', из которой еще никому и никогда не удавалось бежать.
Барбара живет в городе Эмеральд. Ее отец, Мигель Сантана, является начальником тюрьмы. Девушка знает, чего хочет от жизни. Вопреки традициям, запрещающим женщинам работать, она мечтает стать врачом. Вместе со своей няней Гризельдой, несмотря на запреты матери, она помогает бродягам, отвергнутым обществом...
Качество: TVRip
Формат: AVI
Видео кодек: DivX
Аудио кодек: MP3
Видео: 720x544 (1.32:1), 25 fps, DivX Codec 6.8 ~965 kbps avg, 0.10 bit/pixel
Аудио: 48 kHz, MPEG Layer 3, 2 ch, ~98.26 kbps avg

MI

General
Complete name                    : C:\Любовники пустыни\001.avi
Format                           : AVI
Format/Info                      : Audio Video Interleave
File size                        : 500 MiB
Duration                         : 1h 4mn
Overall bit rate                 : 1 077 Kbps
Writing application              : VirtualDubMod 1.5.4.1 (build 2178/release)
Writing library                  : VirtualDubMod build 2178/release
Video
ID                               : 0
Format                           : MPEG-4 Visual
Format settings, BVOP            : 1
Format settings, QPel            : No
Format settings, GMC             : No warppoints
Format settings, Matrix          : Default (H.263)
Muxing mode                      : Packed bitstream
Codec ID                         : DX50
Codec ID/Hint                    : DivX 5
Duration                         : 1h 4mn
Bit rate                         : 966 Kbps
Width                            : 720 pixels
Height                           : 544 pixels
Display aspect ratio             : 4:3
Frame rate                       : 25.000 fps
Color space                      : YUV
Chroma subsampling               : 4:2:0
Bit depth                        : 8 bits
Scan type                        : Progressive
Compression mode                 : Lossy
Bits/(Pixel*Frame)               : 0.099
Stream size                      : 449 MiB (90%)
Writing library                  : DivX 6.8.0 (UTC 2007-12-04)
Audio
ID                               : 1
Format                           : MPEG Audio
Format version                   : Version 1
Format profile                   : Layer 3
Mode                             : Joint stereo
Mode extension                   : MS Stereo
Codec ID                         : 55
Codec ID/Hint                    : MP3
Duration                         : 1h 4mn
Bit rate mode                    : Variable
Bit rate                         : 98.3 Kbps
Nominal bit rate                 : 128 Kbps
Channel(s)                       : 2 channels
Sampling rate                    : 48.0 KHz
Compression mode                 : Lossy
Stream size                      : 45.6 MiB (9%)
Alignment                        : Aligned on interleaves
Interleave, duration             : 24 ms (0.60 video frame)
Interleave, preload duration     : 523 ms
Writing library                  : LAME3.97
Encoding settings                : -m j -V 4 -q 2 -lowpass 17 --abr 128

Скриншоты

[Цитировать]



Показать сообщения:    

Текущее время: 02-Дек 21:10

Часовой пояс: UTC + 3


Вы не можете начинать темы
Вы не можете отвечать на сообщения
Вы не можете редактировать свои сообщения
Вы не можете удалять свои сообщения
Вы не можете голосовать в опросах
Вы не можете прикреплять файлы к сообщениям
Вы не можете скачивать файлы

!ВНИМАНИЕ!
Сайт не предоставляет электронные версии произведений, а занимается лишь коллекционированием и каталогизацией ссылок, присылаемых и публикуемых на форуме нашими читателями. Если вы являетесь правообладателем какого-либо представленного материала и не желаете, чтобы ссылка на него находилась в нашем каталоге, свяжитесь с нами, и мы незамедлительно удалим ее. Файлы для обмена на трекере предоставлены пользователями сайта, и администрация не несет ответственности за их содержание. Просьба не заливать файлы, защищенные авторскими правами, а также файлы нелегального содержания!