[ Сегодня идет свободное скачивание без начисления Download ]


Статистика раздачи
Нет
 
   
 
Top  
 
 
Луна, наследница / По имени Луна / Luna, La Heredera-
-
- Год выпуска: 2004
Страна: Колумбия
Жанр: Теленовелла
Серии (количество): 001-117 (117)
Продолжительность: ~00:45:00
Перевод: профессиональный многоголосый закадровый
Субтитры: отсутствуют
Режиссёр: Juan Carlos, Villamizar Delgado
В ролях: Кристиан Мейер, Габи Эспино, Аура Кристина Гейтнер, Алехандро де ла Мадрид, Данило Сантос, Хулио Сезар Луна, Андреа Лопез, Лилиана Салазар
Описание: Привлекательная девушка Луна живет с матерью в небольшой деревушке на побережье Карибского моря. Это райское место привлекает внимание крупного бизнесмена дона Эстебана, который хочет при поддержке крупных авторитетов построить здесь туристический комплекс. Руководить проектом назначают Михареса, одного из приближенных дона Эстебана. Чтобы ускорить процесс приобретения всех необходимых под строительство земельных участков, он нанимает Игнасио – импульсивного и беспринципного молодого человека.
Виктория Мендоса, мать Луны, отказывается продавать свои земли, которые для проекта оказываются ключевыми. Молодой предприниматель Маурисио Гарсия, поклявшийся разорить дона Эстебана, из чувства мести помогает напуганной Виктории отстаивать свои права на землю. Однако Игнасио убивает Викторию в расчете на то, что ему будет проще уломать ее дочь - Луну.
После смерти матери Луна становится полноправной и единственной наследницей живописных пляжей. Игнасио не удается завершить свой коварный план. Луна уезжает в большой город под защиту своего родственника. Там жизнь главной героини сильно изменится...-Скриншоты Качество: TVRip
Формат: AVI
Видео кодек: XviD
Аудио кодек: AC3
Видео: 640x480 (1.33:1), 25 fps, XviD 1.1 beta 2 (build 39) ~1200 kbps avg, 0.16 bit/pixel
Аудио: 48 kHz, AC3 Dolby Digital, 2/0 (L,R) ch, ~256 kbps

MI

Общее
Полное имя                       : D:\МОИ РАЗДАЧИ\Луна, наследница\Luna-001.avi
Формат                           : AVI
Формат/Информация                : Audio Video Interleave
Размер файла                     : 402 Мбайт
Продолжительность                : 38 м.
Общий поток                      : 1466 Кбит/сек
Библиотека кодирования           : VirtualDub-MPEG2 build 24458/release
Видео
Идентификатор                    : 0
Формат                           : MPEG-4 Visual
Профиль формата                  : Simple@L0
Параметр BVOP формата            : Нет
Параметр QPel формата            : Нет
Параметр GMC формата             : Без точки перехода
Параметр матрицы формата         : Default (H.263)
Идентификатор кодека             : XVID
Идентификатор кодека/Подсказка   : XviD
Продолжительность                : 38 м.
Битрейт                          : 1200 Кбит/сек
Ширина                           : 640 пикс.
Высота                           : 480 пикс.
Соотношение сторон               : 4:3
Частота кадров                   : 25,000 кадр/сек
Цветовое пространство            : YUV
Подвыборка цветности             : 4:2:0
Битовая глубина                  : 8 бит
Тип развёртки                    : Прогрессивная
Метод сжатия                     : С потерями
Бит/(Пиксели*Кадры)              : 0.156
Размер потока                    : 329 Мбайт (82%)
Библиотека кодирования           : XviD 1.1.0 Beta2 (UTC 2005-04-04)
Аудио
Идентификатор                    : 1
Формат                           : AC-3
Формат/Информация                : Audio Coding 3
Расширение режима                : CM (complete main)
Идентификатор кодека             : 2000
Продолжительность                : 38 м.
Вид битрейта                     : Постоянный
Битрейт                          : 256 Кбит/сек
Канал(ы)                         : 2 канала(ов)
Расположение каналов             : Front: L R
Частота                          : 48,0 КГц
Битовая глубина                  : 16 бит
Метод сжатия                     : С потерями
Размер потока                    : 70,1 Мбайт (17%)
Выравнивание                     : Соединение по промежуткам
Продолжительность промежутка     : 40  мс. (1,00 видеокадр)
Время предзагрузки промежутка    : 512 ms

[Цитировать]



Показать сообщения:    

Текущее время: 09-Дек 18:31

Часовой пояс: UTC + 3


Вы не можете начинать темы
Вы не можете отвечать на сообщения
Вы не можете редактировать свои сообщения
Вы не можете удалять свои сообщения
Вы не можете голосовать в опросах
Вы не можете прикреплять файлы к сообщениям
Вы не можете скачивать файлы

!ВНИМАНИЕ!
Сайт не предоставляет электронные версии произведений, а занимается лишь коллекционированием и каталогизацией ссылок, присылаемых и публикуемых на форуме нашими читателями. Если вы являетесь правообладателем какого-либо представленного материала и не желаете, чтобы ссылка на него находилась в нашем каталоге, свяжитесь с нами, и мы незамедлительно удалим ее. Файлы для обмена на трекере предоставлены пользователями сайта, и администрация не несет ответственности за их содержание. Просьба не заливать файлы, защищенные авторскими правами, а также файлы нелегального содержания!