[ Сегодня идет свободное скачивание без начисления Download ]


Статистика раздачи
Нет
 
   
 
Top  
 
 
София, дай мне время / Sof?a Dame Tiempo
Год выпуска: 2003
Страна: Колумбия
Производство: RTI Colombia, Telemundo, Carac
Жанр: Теленовелла
Серии (количество): 1-130 (130)
Продолжительность: 45 мин. серия
Перевод: профессиональный многоголосый закадровый
Субтитры: Отсутствуют
Режиссёр: Серхио Осорио
В ролях: Карен Мартинес (Karen Martinez), Рафаэль Новоа (Rafael Novoa), Ана Мария Трухильо (Ana Maria Trujillo), Орландо Фундичелли (Orlando Fundichelly), Ана Лаверде (Ana Laverde), Алехандро Лопес (Alejandro Lopez), Майте Вилан (Mayte Vilan), Сальваторе Басиле (Salvatore Basile), Марсела Галлего (Marcela Gallego), Педро Могойон (Pedro Mogollon), Катерин Велез (Katherine Velez), Виктор Сифуйентес (Victor Cifuentes), Карлос Хартадо (Carlos Hurtado), Астрид Фернандез (Astrid Hernandez), Орландо Ламбоглия (Orlando Lamboglia)
Описание: Сантьяго и София выросли вместе среди волшебно красивой природы маленького рыбацкого городка Соплавиенто. Они мечтали об общем счастье - когда вырастут, женятся и будут иметь много детей...
Дети выросли. Юноша стал рыбаком, девушка - учительницей. Они любят друг друга, но их мечта разрушена точно в день свадьбы. Сантьяго обвинен в тяжелом преступлении против сына самого влиятельного человека в городке.
Происходящие события столь нелепы и скоротечны, что Сантьяго приходится бежать из городка, чтобы не стать жертвой неминуемой мести. Он не успевает объясниться с будущей супругой, а она в свадебном наряде ожидает его перед алтарем.
После того, как София узнаёт, что произошло, она ни на миг не испытывает сомнений в невинности своего любимого и дает обещание перед собой и их будущим ребенком, что разыщет Сантьяго, что бы ей это ни стоило, и они снова будут вместе.
Тем временем сбежавший Сантьяго находит спасение на яхте Франчески Сабина - красивой и богатой молодой женщины. Она помогает ему обосноваться в большом городе, открывает ему новый и незнакомый мир. И, к своему удивлению, Сантьяго чувствует, что его красивая спасительница пробуждает в нем чувства, которые он до сих пор не испытывал - его любовь к Софии должна пройти через это испытание.
Так и не узнав, что София ждет от него ребенка, Сантьяго пытается внушить себе, что после его бегства София наверняка не захочет его видеть. Эта мысль помогает ему забыть прошлое, забыть большую любовь, начать жить заново и предоставить шанс развиваться отношениям с новой женщиной в его жизни - Франческой Сабина.
А в далеком Соплавиенто Софию обвиняют в том, что та является виновницей вражды между двумя семьями. Она отвергнута жителями городка, в котором господствует мещанское сознание.
В конце концов София не выдерживает и решает переехать с ребенком в столицу, чтобы избежать людской ненависти и злобы и найти Сантьяго. По воле случая она нанимается прислугой в дом Франчески. Увидев Софию, Сантьяго понимает, что его чувства к ней все так же сильны.
Качество: TVRip
Формат: AVI
Видео кодек: XviD
Аудио кодек: MP3
Видео: Xvid 640x480 25.00fps 1199 Kbps[Stream 00]
Аудио: MPEG Audio Layer 3 48000Hz stereo 128kbps [Stream 01]

MI

General
Complete name : D:\Video\Торрент\_Мои\София, дай мне время\Sofia\Sofia-009.avi
Format : AVI
Format/Info : Audio Video Interleave
File size : 425 MiB
Duration : 44mn 24s
Overall bit rate : 1 337 Kbps
Writing library : VirtualDub-MPEG2 build 24600/release
Video
ID : 0
Format : MPEG-4 Visual
Format profile : AdvancedSimple@L5
Format settings, BVOP : Yes
Format settings, QPel : No
Format settings, GMC : No warppoints
Format settings, Matrix : Default (H.263)
Muxing mode : Packed bitstream
Codec ID : XVID
Codec ID/Hint : XviD
Duration : 44mn 24s
Bit rate : 1 199 Kbps
Width : 640 pixels
Height : 480 pixels
Display aspect ratio : 4:3
Frame rate : 25.000 fps
Resolution : 24 bits
Colorimetry : 4:2:0
Scan type : Progressive
Bits/(Pixel*Frame) : 0.156
Stream size : 381 MiB (90%)
Writing library : XviD 1.2.1 (UTC 2008-12-04)
Audio
ID : 1
Format : MPEG Audio
Format version : Version 1
Format profile : Layer 3
Format settings, Mode : Joint stereo / MS Stereo
Codec ID : 55
Codec ID/Hint : MP3
Duration : 44mn 24s
Bit rate mode : Constant
Bit rate : 128 Kbps
Channel(s) : 2 channels
Sampling rate : 48.0 KHz
Resolution : 16 bits
Stream size : 40.7 MiB (10%)
Alignment : Split accross interleaves
Interleave, duration : 40 ms (1.00 video frame)
Interleave, preload duration : 500 ms

Скриншоты

[Цитировать]



Показать сообщения:    

Текущее время: 10-Дек 23:28

Часовой пояс: UTC + 3


Вы не можете начинать темы
Вы не можете отвечать на сообщения
Вы не можете редактировать свои сообщения
Вы не можете удалять свои сообщения
Вы не можете голосовать в опросах
Вы не можете прикреплять файлы к сообщениям
Вы не можете скачивать файлы

!ВНИМАНИЕ!
Сайт не предоставляет электронные версии произведений, а занимается лишь коллекционированием и каталогизацией ссылок, присылаемых и публикуемых на форуме нашими читателями. Если вы являетесь правообладателем какого-либо представленного материала и не желаете, чтобы ссылка на него находилась в нашем каталоге, свяжитесь с нами, и мы незамедлительно удалим ее. Файлы для обмена на трекере предоставлены пользователями сайта, и администрация не несет ответственности за их содержание. Просьба не заливать файлы, защищенные авторскими правами, а также файлы нелегального содержания!