[ Сегодня идет свободное скачивание без начисления Download ]


Статистика раздачи
Нет
 
   
 
Top  
 
 
Женщина Лоренсо / La Mujer de Lorenzo-
-
- Год выпуска: 2003
Страна: Перу-Венесуэла
Производство: Venevicion
Жанр: Теленовелла
Серии (количество): 001-100 (100)
Продолжительность: ~ 00:45:00
Перевод: профессиональный многоголосый закадровый
Субтитры: отсутствуют
Режиссёр: Луис Барриос, Хорхе Тапиа
В ролях: Гильермо Перез, Каролина Техера, Адриана Лувьер, Юл Бюркле, Андреа Монтенегро, Милене Васкез, Камуча Негрете, Эдуардо Сести, Хосе Луис Руиз, Хавьер Пиментель, Хуан Мартин Меркадо, Химена Диаз, Оскар Бельтран и дрОписаниеОкружающие считают брак Лауриты и Лоренсо весьма удачным. Лоренсо - красивый, благородный, образованный, богатый мужчина и просто обожает свою жену. Она – красивая, элегантная женщина, настоящая светская дама и идеально подходит такому мужчине, как он. Однако, не все то золото, что блестит, и что-то у этой пары явно не так. Лаурите наскучил ее брак, и это обстоятельство вызывает целую серию событий, которые никто не в состоянии контролировать.
Все начинается с появления Алекса, молодого легкомысленного корыстолюбца, основным занятием которого является соблазнение богатых женщин, а работа персональным тренером помогает ему сближаться с ними. Познакомившись с Алексом, Лаура почувствовала к нему необычайное физическое влечение. А последовавшие за этим встречи в гимнастическом зале, который она посещала, сделали их не только друзьями, но и страстными любовниками. Лаурита, которая нисколько не сомневается в своей любви к Алексу, принимает трудное решение уйти от Лоренсо. Но когда она сообщает об этом своему адвокату, тот напоминает ей, что по условиям подписанного ей брачного контракта в случае развода она останется без гроша.
Будучи без ума от Алекса, но при этом не желая отказываться от роскоши, к которой она привыкла, Лаурита решает найти другой выход из положения. Ее план состоит в том, чтобы Лоренсо сам попросил развод и по собственному желанию отдал ей половину состояния. Как же она осуществит свое намерение? Заставив его влюбиться в другую женщину.
Подходящий кандидат – Сильвия, новая ассистентка Лоренсо, миловидная, простая и славная молодая женщина. В тандеме со своим другом, дизайнером одежды Джакомо Боничелли, Лаурита сближается с Сильвией, предлагая ей "невинную" дружбу, и постепенно вылепливает из нее женщину, которой непременно должен соблазниться Лоренсо.
Постепенно Лоренсо и Сильвия начинают чувствовать сильную привязанность друг к другу. Однако всё не так просто, как ожидала Лаурита, поскольку Сильвия вот уже несколько лет влюблена в своего друга Алекса. Осуществление плана, задуманного Лауритой, осложняется приездом Исабелы, бывшей невесты Лоренсо, которая возвращается из-за границы с намерением отобрать у него компанию. Исабела сильно переживает оттого, что Лаурита увела у нее мужчину, и хочет наказать их обоих. Чтобы отомстить, Исабела становится любовницей Алекса, создав тем самым массу сложностей Лаурите. Со временем Сильвия и Лоренсо понимают, что они глубоко и по-настоящему влюблены друг в друга, и Лоренсо, наконец, решает попросить у Лауриты развод. Однако теперь, когда все, казалось бы, идет по плану, Лаурита осознает, что она вот-вот все потеряет, и тогда она меняет свое мнение… и начинает активную борьбу за возвращение Лоренсо. Так кто же все-таки будет женщиной Лоренсо? Кто из них станет победительницей?-Доп. информация: Запись и конвертация сериала в avi - Джули-Качество: TVRip
Формат: AVI
Видео кодек: DivX
Аудио кодек: MP3
Видео: 640x480 (1.33:1), 25 fps, DivX Codec 5.x or 6.x ~1008 kbps avg, 0.13 bit/pixel
Аудио: 44.100 kHz, MPEG Layer 3, 2 ch, ~128.00 kbps avg

MI

Общее
Полное имя                       : D:\...\Женщина Лоренсо\001.AVI
Формат                           : AVI
Формат/Информация                : Audio Video Interleave
Размер файла                     : 377 Мбайт
Продолжительность                : 45 м.
Общий поток                      : 1149 Кбит/сек
Режиссёр                         : created.with.SUPER(C).v2008.bld.33
Программа кодирования            : SUPER(C) - by eRightSoft
Видео
Идентификатор                    : 0
Формат                           : MPEG-4 Visual
Профиль формата                  : Simple@L1
Параметр BVOP формата            : Нет
Параметр QPel формата            : Нет
Параметр GMC формата             : Без точки перехода
Параметр матрицы формата         : Default (H.263)
Идентификатор кодека             : DX50
Идентификатор кодека/Подсказка   : DivX 5
Продолжительность                : 45 м.
Битрейт                          : 1009 Кбит/сек
Ширина                           : 640 пикс.
Высота                           : 480 пикс.
Соотношение сторон               : 4:3
Частота кадров                   : 25,000 кадр/сек
Цветовое пространство            : YUV
Подвыборка цветности             : 4:2:0
Битовая глубина                  : 8 бит
Тип развёртки                    : Прогрессивная
Метод сжатия                     : С потерями
Бит/(Пиксели*Кадры)              : 0.131
Размер потока                    : 331 Мбайт (88%)
Библиотека кодирования           : SUPER(C)
Аудио
Идентификатор                    : 1
Формат                           : MPEG Audio
Версия формата                   : Version 1
Профиль формата                  : Layer 3
Идентификатор кодека             : 55
Идентификатор кодека/Подсказка   : MP3
Продолжительность                : 45 м.
Вид битрейта                     : Постоянный
Битрейт                          : 128 Кбит/сек
Канал(ы)                         : 2 канала(ов)
Частота                          : 44,1 КГц
Метод сжатия                     : С потерями
Размер потока                    : 41,9 Мбайт (11%)
Выравнивание                     : Соединение по промежуткам
Продолжительность промежутка     : 26  мс. (0,65 видеокадр)
Время предзагрузки промежутка    : 522 ms

Информация для личеров

Внимание! Раздача ведётся путём добавления новых серий; при каждом добавлении создётся новый торрент. Чтобы начать докачку новой серии, пользователям необходимо сделать следующее:
1) остановить скачивание
2) удалить старый торрент у себя из клиента (старые серии удалять не надо)
3) скачать новый торрент и запустить его у себя в клиенте вместо старого, при этом указать клиенту путь в старую папку куда и должно происходить скачивание новых серий.
Ваш клиент при этом должен произвести хеширование (проверку) старой папки (если не производит сам - помогите ему сделать это), и будет докачивать только те серии которых у вас ещё нет. Старые серии при этом не удаляются, а продолжают раздаваться!
Eсли вы уже удалили старые серии, то предотвратить повторную закачку старых серий можно, отжав галочку в соответсвующих местах при запуске нового торрента. По возможности, желательно не удалять старые серии как можно дольше чтобы релизёр не столько продолжал раздавать старые серии, а смог сконцентрироваться на новых.
СКРИНШОТЫ

[Цитировать]

Топик был перенесен из форума Зарубежные сериалы в форум Сериалы Латинской Америки, Турции, Индии
Dimasik79



Показать сообщения:    

Текущее время: 28-Мар 23:54

Часовой пояс: UTC + 6


Вы не можете начинать темы
Вы не можете отвечать на сообщения
Вы не можете редактировать свои сообщения
Вы не можете удалять свои сообщения
Вы не можете голосовать в опросах
Вы не можете прикреплять файлы к сообщениям
Вы не можете скачивать файлы

!ВНИМАНИЕ!
Сайт не предоставляет электронные версии произведений, а занимается лишь коллекционированием и каталогизацией ссылок, присылаемых и публикуемых на форуме нашими читателями. Если вы являетесь правообладателем какого-либо представленного материала и не желаете, чтобы ссылка на него находилась в нашем каталоге, свяжитесь с нами, и мы незамедлительно удалим ее. Файлы для обмена на трекере предоставлены пользователями сайта, и администрация не несет ответственности за их содержание. Просьба не заливать файлы, защищенные авторскими правами, а также файлы нелегального содержания!