[ Сегодня идет свободное скачивание без начисления Download ]


Статистика раздачи
Нет
 
   
 
Top  
 
 
-Билет на Vegas (2012) [H.264] BDRip
«Кто же сорвет джек-пот?»
- Русское название: Билет на Vegas
Год выпуска: 2012
Производство: Россия, США
Жанр: Комедия, Приключения
Перевод: Не требуется (Русский)
Субтитры: Отсутствуют-Дата мировой премьеры: 24 января 2013
Дата российской премьеры: 24 января 2013, «Парадиз»
Дата выхода DVD релиза: 19 февраля 2013, «Парадиз Медиа»-Режиссер: Гор Киракосян
Актеры: Михаил Галустян, Иван Стебунов, Ингрид Олеринская, Владимир Яглыч, Наталья Ноздрина, Дэнни Трехо, Олег Тактаров, Ким Уитли, Гильермо Диас, Годфри-Описание фильма:
На молодую парочку, Макса и Лизу, сваливается удача: они становятся победителями лотереи с выигрышем в пять миллионов долларов! Но получить деньги можно только на торжественной церемонии в столице порока, азартных игр и безудержного веселья, Лас Вегасе. Счастливчики не подозревают, что на большой куш есть и другие претенденты. Оказавшись в Америке, они попадают на крючок очень опасного, но невероятно обаятельного мошенника Гарика, вылитого Элвиса Пресли. Кто же сорвет джек-пот?-
Российское возрастное ограничение: 16+ (зрителям, достигшим 16 лет)-Продолжительность: 01:29:38
Качество видео: BDRip
Формат: MKV
Видео кодек: H.264
Аудио кодек: AC3
Видео: H.264, 1056x440 (2,40:1), 24,000 fps, 1885 Кbps, 0.169 bit/pixel
Аудио: 48 kHz, AC3 Dolby Digital, 3/2 (L,C,R,l,r) + LFE ch, ~448.00 kbps avg
-

MediaInfo

General
Unique ID                      : 221496650641157081218690197858012009079 (0xA6A2B405405448D6BA713316A8529277)
Complete name                  : Bilet.na.Vegas.2012.O.BDRip-AVC.[NNM-Club.ru].mkv
Format                         : Matroska
Format version                 : Version 2
File size                      : 1.46 GiB
Duration                       : 1h 29mn
Overall bit rate               : 2 332 Kbps
Movie name                     : -=POTROKS=-
Encoded date                   : UTC 2013-02-15 05:20:46
Writing application            : mkvmerge v5.7.0 ('The Whirlwind') built on Jul  8 2012 20:08:51
Writing library                : libebml v1.2.3 + libmatroska v1.3.0
Video
ID                             : 1
Format                         : AVC
Format/Info                    : Advanced Video Codec
Format profile                 : [url=mailto:High@L4.1]High@L4.1[/url]
Format settings, CABAC         : Yes
Format settings, ReFrames      : 9 frames
Codec ID                       : V_MPEG4/ISO/AVC
Duration                       : 1h 29mn
Bit rate                       : 1 885 Kbps
Width                          : 1 056 pixels
Height                         : 440 pixels
Display aspect ratio           : 2.40:1
Frame rate mode                : Constant
Frame rate                     : 24.000 fps
Color space                    : YUV
Chroma subsampling             : 4:2:0
Bit depth                      : 8 bits
Scan type                      : Progressive
Bits/(Pixel*Frame)             : 0.169
Stream size                    : 1.15 GiB (79%)
Title                          : Билет на Vegas
Writing library                : x264 core 128 r2216M 198a7ea
Encoding settings              : cabac=1 / ref=10 / deblock=1:-2:-1 / analyse=0x3:0x133 / me=umh / subme=11 / psy=1 / psy_rd=0.98:0.03 / mixed_ref=1 / me_range=32 / chroma_me=1 / trellis=2 / 8x8dct=1 / cqm=0 / deadzone=21,11 / fast_pskip=0 / chroma_qp_offset=-3 / threads=4 / lookahead_threads=1 / sliced_threads=0 / nr=0 / decimate=1 / interlaced=0 / bluray_compat=0 / constrained_intra=0 / bframes=11 / b_pyramid=1 / b_adapt=2 / b_bias=0 / direct=3 / weightb=1 / open_gop=1 / weightp=2 / keyint=240 / keyint_min=24 / scenecut=40 / intra_refresh=0 / rc_lookahead=150 / rc=2pass / mbtree=1 / bitrate=1885 / ratetol=1.0 / qcomp=0.70 / qpmin=0 / qpmax=69 / qpstep=4 / cplxblur=20.0 / qblur=0.5 / vbv_maxrate=20000 / vbv_bufsize=25000 / nal_hrd=none / ip_ratio=1.35 / aq=1:0.80
Language                       : Russian
Default                        : Yes
Forced                         : No
Audio
ID                             : 2
Format                         : AC-3
Format/Info                    : Audio Coding 3
Mode extension                 : CM (complete main)
Format settings, Endianness    : Big
Codec ID                       : A_AC3
Duration                       : 1h 29mn
Bit rate mode                  : Constant
Bit rate                       : 448 Kbps
Channel(s)                     : 6 channels
Channel positions              : Front: L C R, Side: L R, LFE
Sampling rate                  : 48.0 KHz
Bit depth                      : 16 bits
Compression mode               : Lossy
Delay relative to video        : 59ms
Stream size                    : 287 MiB (19%)
Title                          : DD 5.1 @ 448 kbps
Language                       : Russian
Default                        : Yes
Forced                         : No
-Скриншоты:


Время раздачи: круглосуточно до 20 скачавших, далее по возможности

[Цитировать]

Топик был перенесен из форума Новинки кинопроката в форум Комедия
Henkok



Показать сообщения:    

Текущее время: 10-Дек 15:46

Часовой пояс: UTC + 3


Вы не можете начинать темы
Вы не можете отвечать на сообщения
Вы не можете редактировать свои сообщения
Вы не можете удалять свои сообщения
Вы не можете голосовать в опросах
Вы не можете прикреплять файлы к сообщениям
Вы не можете скачивать файлы

!ВНИМАНИЕ!
Сайт не предоставляет электронные версии произведений, а занимается лишь коллекционированием и каталогизацией ссылок, присылаемых и публикуемых на форуме нашими читателями. Если вы являетесь правообладателем какого-либо представленного материала и не желаете, чтобы ссылка на него находилась в нашем каталоге, свяжитесь с нами, и мы незамедлительно удалим ее. Файлы для обмена на трекере предоставлены пользователями сайта, и администрация не несет ответственности за их содержание. Просьба не заливать файлы, защищенные авторскими правами, а также файлы нелегального содержания!