[ Сегодня идет свободное скачивание без начисления Download ]


Статистика раздачи
Нет
 
   
 
Top  
 
 
-Хорошо быть тихоней / The Perks of Being a Wallflower (2012) DVD5
«Будь фильтром, а не губкой!»
- Русское название: Хорошо быть тихоней
Оригинальное название: The Perks of Being a Wallflower
Год выпуска: 2012
Производство: Summit Entertainment / Mr. Mudd [США]
Жанр: Драма, мелодрама
Перевод: Дублированный [лицензия]
Субтитры: Вшитые отключаемые
Язык субтитров: Русский
Режиссер: Стивен Чбоски
Актеры: Логан Лерман, Эмма Уотсон, Эзра Миллер, Кейт Уолш, Дилан МакДермотт, Патрик Де Ледебур, Джонни Симмонс, Брайан Балзерини, Том Крушевски, Нина Добрев
Описание фильма:
История о Чарли, ученике старшей школы в Питтсбурге, стеснительном и непопулярном. На наших глазах Чарли взрослеет, меняется круг его общения, меняется его мнение о мире.
Дата мировой премьеры: 8 сентября 2012
Дата российской премьеры: 20 сентября 2012, «West»
Дата выхода DVD релиза: 12 февраля 2013, «West Video»
Дата выхода Blu-Ray релиза: 12 февраля 2013, «West Video»

Рейтинг PG-13 - Детям до 13 лет просмотр не желателен
Возраст 16+ - Зрителям, достигшим 16 лет
Продолжительность: 01:38:25
Качество видео: DVD5
Видео: MPEG-2, 720x576@1024x576 (PAL 16:9), ~5500 kbps, Bit/Pixel: 0.536
Аудио 1: AC3 5.1, 384 kbps [Русский - дублированный]
Аудио 2: AC3 5.1, 384 kbps [Английский - оригинал]

Дополнительные материалы...

Отсутствуют

DVDInfo…

Title: Хорошо.быть.тихоней-The.Perks.of.Being.a.Wallflower.(2012).DVD5.nnm-club.ru-Lelya_K
Size: 4.37 Gb ( 4 577 078 KBytes ) - DVD-5
Enabled regions: 1, 2, 3, 4, 5, 6, 7, 8
VTS_01 :
Play Length:
Video: PAL 4:3 (720x576) VBR
VTS_02 :
Play Length: 01:38:25
Video: PAL 16:9 (720x576) VBR, Auto Pan&Scan, Auto Letterboxed
Audio:
Russian (Dolby AC3, 6 ch)
English (Dolby AC3, 6 ch)
Subtitles:
Russian

MediaInfo...

Полное имя : D:\Хорошо.быть.тихоней-The.Perks.of.Being.a.Wallflower.(2012).DVD5.nnm-club.ru-Lelya_K\VIDEO_TS\VTS_02_2.VOB
Формат : MPEG-PS
Размер файла : 1024 Мбайт
Продолжительность : 22 м.
Режим общего битрейта : Переменный
Общий поток : 6455 Кбит/сек
Видео
Идентификатор : 224 (0xE0)
Формат : MPEG Video
Версия формата : Version 2
Профиль формата : Main@Main
Параметр BVOP формата : Да
Параметр матрицы формата : Выборочная
Параметр GOP формата : M=3, N=12
Продолжительность : 22 м.
Вид битрейта : Переменный
Битрейт : 5559 Кбит/сек
Максимальный битрейт : 8479 Кбит/сек
Ширина : 720 пикселей
Высота : 576 пикселей
Соотношение сторон : 16:9
Частота кадров : 25,000 кадров/сек
Стандарт вещания : PAL
Цветовое пространство : YUV
Субдискретизация насыщенности : 4:2:0
Битовая глубина : 8 бит
Тип развёртки : Чересстрочная
Порядок развёртки : Верхнее поле первое
Метод сжатия : С потерями
Бит/(Пиксели*Кадры) : 0.536
Размер потока : 882 Мбайт (86%)
Аудио #1
Идентификатор : 189 (0xBD)-128 (0x80)
Формат : AC-3
Формат/Информация : Audio Coding 3
Расширение режима : CM (complete main)
Параметр Endianness формата : Big
Режим смешивания : DVD-Video
Продолжительность : 22 м.
Вид битрейта : Постоянный
Битрейт : 384 Кбит/сек
Каналы : 6 каналов
Расположение каналов : Front: L C R, Side: L R, LFE
Частота : 48,0 КГц
Битовая глубина : 16 бит
Метод сжатия : С потерями
Задержка видео : -640 мс.
Размер потока : 60,9 Мбайт (6%)
Аудио #2
Идентификатор : 189 (0xBD)-129 (0x81)
Формат : AC-3
Формат/Информация : Audio Coding 3
Расширение режима : CM (complete main)
Параметр Endianness формата : Big
Режим смешивания : DVD-Video
Продолжительность : 22 м.
Вид битрейта : Постоянный
Битрейт : 384 Кбит/сек
Каналы : 6 каналов
Расположение каналов : Front: L C R, Side: L R, LFE
Частота : 48,0 КГц
Битовая глубина : 16 бит
Метод сжатия : С потерями
Задержка видео : -640 мс.
Размер потока : 60,9 Мбайт (6%)
Текст
Идентификатор : 189 (0xBD)-32 (0x20)
Формат : RLE
Формат/Информация : Run-length encoding
Режим смешивания : DVD-Video
Продолжительность : 22 м.
Задержка видео : 1 с. 0 мс.
Меню

Изготовление релиза:

Исходник: Хорошо быть тихоней / The Perks of Being a Wallflower (2012) DVD9 [Спасибо большое Shuran80]
Удалены: дополнительные материалы, предупреждения и заставки, русская DTS 5.1 аудиодорожка.
Видео сжато: сжатие конечных титров на 70%, сжатие самого фильма примерно на 21%.
Меню: частично анимированное, на русском языке, недействующие кнопки затерты и закрыты.
Обработка и сжатие: DVD ReMake Pro + DVD Rebuilder + CCE SP2 1.00.01.09 [7 проходов] + Работа с меню (Adobe PhotoShop и MuxMan).

Log-файл DVD-Rebuilder-а:

[16:23:16] Phase I, PREPARATION started.
- DVD-RB v1.28.2
- AVISYNTH 2.6.0.3
- CCE 1.0.1.9 encoder selected.
- "Adaptive Quantizer Matrices" is enabled.
- Source: !!!
- VTS_02: 2 817 297 sectors.
-- Scanning and writing .D2V & .AVS files
-- Processed 147 638 frames.
-- Building .AVS and .ECL files
- Reduction Level for DVD-5: 75,8%
- Overall Bitrate : 5 300Kbs
- Space for Video : 3 820 790KB
- HIGH/LOW/TYPICAL Bitrates: 5 813/4 701/5 300 Kbs
[16:25:59] Phase I, PREPARATION completed in 2 minutes.
[16:26:48] Phase II ENCODING started
- Creating M2V for VTS_02 segment 0
- Creating M2V for VTS_02 segment 1
- Creating M2V for VTS_02 segment 2
- Creating M2V for VTS_02 segment 3
- Creating M2V for VTS_02 segment 4
- Creating M2V for VTS_02 segment 5
- Creating M2V for VTS_02 segment 6
- Creating M2V for VTS_02 segment 7
- Creating M2V for VTS_02 segment 8
- Creating M2V for VTS_02 segment 9
- Creating M2V for VTS_02 segment 10
- Creating M2V for VTS_02 segment 11
- Creating M2V for VTS_02 segment 12
- Creating M2V for VTS_02 segment 13
- Creating M2V for VTS_02 segment 14
- Creating M2V for VTS_02 segment 15
[18:21:52] Phase II ENCODING completed in 115 minutes.
[18:25:57] Phase III, REBUILD started.
- Copying IFO, BUP, and unaltered files...
- Processing VTS_02
- Reading/processing TMAP table...
- Rebuilding seg 0 VOBID 1 CELLID 1
- Rebuilding seg 1 VOBID 1 CELLID 2
- Rebuilding seg 2 VOBID 1 CELLID 3
- Rebuilding seg 3 VOBID 1 CELLID 4
- Rebuilding seg 4 VOBID 1 CELLID 5
- Rebuilding seg 5 VOBID 1 CELLID 6
- Rebuilding seg 6 VOBID 1 CELLID 7
- Rebuilding seg 7 VOBID 1 CELLID 8
- Rebuilding seg 8 VOBID 1 CELLID 9
- Rebuilding seg 9 VOBID 1 CELLID 10
- Rebuilding seg 10 VOBID 1 CELLID 11
- Rebuilding seg 11 VOBID 1 CELLID 12
- Rebuilding seg 12 VOBID 1 CELLID 13
- Rebuilding seg 13 VOBID 1 CELLID 14
- Rebuilding seg 14 VOBID 1 CELLID 15
- Rebuilding seg 15 VOBID 1 CELLID 16
- Updating NAVPACKS for VOBID_01
- Updated VTS_C_ADT.
- Updated VTS_VOBU_ADMAP.
- Updated IFO: VTS_02_0.IFO
- Updating TMAP table...
- Correcting VTS Sectors...
[18:35:32] Phase III, REBUILD completed in 10 minutes.
Done.

Скриншоты меню...

Скриншоты:

[Цитировать]



Показать сообщения:    

Текущее время: 09-Дек 03:05

Часовой пояс: UTC + 3


Вы не можете начинать темы
Вы не можете отвечать на сообщения
Вы не можете редактировать свои сообщения
Вы не можете удалять свои сообщения
Вы не можете голосовать в опросах
Вы не можете прикреплять файлы к сообщениям
Вы не можете скачивать файлы

!ВНИМАНИЕ!
Сайт не предоставляет электронные версии произведений, а занимается лишь коллекционированием и каталогизацией ссылок, присылаемых и публикуемых на форуме нашими читателями. Если вы являетесь правообладателем какого-либо представленного материала и не желаете, чтобы ссылка на него находилась в нашем каталоге, свяжитесь с нами, и мы незамедлительно удалим ее. Файлы для обмена на трекере предоставлены пользователями сайта, и администрация не несет ответственности за их содержание. Просьба не заливать файлы, защищенные авторскими правами, а также файлы нелегального содержания!