[ Сегодня идет свободное скачивание без начисления Download ]


Статистика раздачи
Нет
 
   
 
Top  
 
 
-Билет на Vegas (2012) DVD5
«Кто же сорвет джек-пот?»
- Оригинальное название: Билет на Vegas
Год выпуска: 2012
Производство: MG Media / Red Tie Films [Россия, США]
Жанр: Комедия, приключения
Перевод: Не требуется [Русский язык]
Субтитры: Отсутствуют
Режиссер: Гор Киракосян
Актеры: Михаил Галустян, Ингрид Олеринская, Иван Стебунов, Дэнни Трехо, Олег Тактаров, Владимир Яглыч, Наталья Ноздрина, Виталий Хаев, Ким Уитли, Гильермо Диас
Описание фильма:
На молодую парочку, Макса и Лизу, сваливается удача: они становятся победителями лотереи с выигрышем в пять миллионов долларов! Но получить деньги можно только на торжественной церемонии в столице порока, азартных игр и безудержного веселья, Лас Вегасе… Счастливчики не подозревают, что на большой куш есть и другие претенденты. Оказавшись в Америке, они попадают на крючок очень опасного, но невероятно обаятельного мошенника Гарика, вылитого Элвиса Пресли.
Дата мировой премьеры: 24 января 2013
Дата российской премьеры: 24 января 2013, «Парадиз»
Дата выхода DVD релиза: 19 февраля 2013, «Парадиз Медиа»

Продолжительность: 01:26:02
Качество видео: DVD5
Видео: MPEG-2, 720x576@1024x576 (PAL 16:9), ~6500 Кбит/сек
Аудио: AC3 5.1, 384 Кбит/сек [Русский]

DVDInfo:

Title: Билет на Вегас (2012) DVD5
Size: 4.36 Gb ( 4 571 720,00 KBytes ) - DVD-5
Enabled regions: 1, 2, 3, 4, 5, 6, 7, 8
VTS_01 :
Play Length: 01:26:02
Video: PAL 16:9 (720x576) VBR, Auto Letterboxed
Audio:
Russian (Dolby AC3, 6 ch)
VTS_02 :
Play Length: 00:02:15+00:02:19+00:01:59
Video: PAL 16:9 (720x576) VBR, Auto Letterboxed
Audio:
Russian (Dolby AC3, 2 ch)
VTS_03 :
Play Length: 00:00:15
Video: PAL 4:3 (720x576) VBR, Letterboxed
VTS_04 :
Play Length: 00:00:10+00:00:07
Video: PAL 16:9 (720x576) VBR, Auto Letterboxed
Audio:
Russian (MPEG1, 2 ch)
* Menus Information *
VIDEO_TS Menu
Video:
PAL 4:3 (720x576) VBR
Letterboxed
English Language Unit :
Title Menu
VTS_01 Menu
Video:
PAL 16:9 (720x576) VBR
Auto Letterboxed
Audio:
Not specified (LinearPCM, 2 ch)
English Language Unit :
Root Menu
VTS_02 Menu
Video:
PAL 16:9 (720x576) VBR
Auto Letterboxed
English Language Unit :
Root Menu
VTS_03 Menu
Video:
NTSC 4:3 (720x480) VBR
Auto Pan&Scan, Auto Letterboxed
English Language Unit :
Root Menu
VTS_04 Menu
Video:
NTSC 4:3 (720x480) VBR
Auto Pan&Scan, Auto Letterboxed
English Language Unit :
Root Menu

MediaInfo:

Общее
Полное имя : D:\ФИЛЬМЫ\Билет на Вегас (2012) DVD5\VIDEO_TS\VTS_01_1.VOB
Формат : MPEG-PS
Размер файла : 1024 Мбайт
Продолжительность : 20 м.
Общий поток : 7024 Кбит/сек
Видео
Идентификатор : 224 (0xE0)
Формат : MPEG Video
Версия формата : Version 2
Профиль формата : Main@Main
Параметр BVOP формата : Да
Параметр матрицы формата : Выборочная
Параметр GOP формата : Variable
Продолжительность : 20 м.
Битрейт : 6500 Кбит/сек
Максимальный битрейт : 8000 Кбит/сек
Ширина : 720 пикселей
Высота : 576 пикселей
Соотношение сторон : 16:9
Частота кадров : 25,000 кадров/сек
Стандарт вещания : PAL
Цветовое пространство : YUV
Субдискретизация насыщенности : 4:2:0
Битовая глубина : 8 бит
Тип развёртки : Чересстрочная
Порядок развёртки : Верхнее поле первое
Метод сжатия : С потерями
Бит/(Пиксели*Кадры) : 0.627
Размер потока : 948 Мбайт (93%)
Аудио
Идентификатор : 189 (0xBD)-128 (0x80)
Формат : AC-3
Формат/Информация : Audio Coding 3
Расширение режима : CM (complete main)
Параметр Endianness формата : Big
Режим смешивания : DVD-Video
Продолжительность : 20 м.
Вид битрейта : Постоянный
Битрейт : 384 Кбит/сек
Каналы : 6 каналов
Расположение каналов : Front: L C R, Side: L R, LFE
Частота : 48,0 КГц
Битовая глубина : 16 бит
Метод сжатия : С потерями
Размер потока : 56,0 Мбайт (5%)
Меню

Процесс изготовления диска:

Удалена русская AC3 2.0 аудиодорожка, ненужные кнопки отключены. Видео сжато ССЕ в связке с DVD-RB Pro примерно на 20% (5 проходов).

Дополнительные материалы:

  • Скоро в кино

Скриншоты меню:

Скриншоты:

Время раздачи: С 10:00 до 22:00 (до 10 скачавших)

[Цитировать]



Показать сообщения:    

Текущее время: 10-Дек 15:48

Часовой пояс: UTC + 3


Вы не можете начинать темы
Вы не можете отвечать на сообщения
Вы не можете редактировать свои сообщения
Вы не можете удалять свои сообщения
Вы не можете голосовать в опросах
Вы не можете прикреплять файлы к сообщениям
Вы не можете скачивать файлы

!ВНИМАНИЕ!
Сайт не предоставляет электронные версии произведений, а занимается лишь коллекционированием и каталогизацией ссылок, присылаемых и публикуемых на форуме нашими читателями. Если вы являетесь правообладателем какого-либо представленного материала и не желаете, чтобы ссылка на него находилась в нашем каталоге, свяжитесь с нами, и мы незамедлительно удалим ее. Файлы для обмена на трекере предоставлены пользователями сайта, и администрация не несет ответственности за их содержание. Просьба не заливать файлы, защищенные авторскими правами, а также файлы нелегального содержания!