[ Сегодня идет свободное скачивание без начисления Download ]


Статистика раздачи
Нет
 
   
 
Top  
 
 
Алеша Попович и Тугарин Змей-- Год выпуска: 2004
Страна: Россия
Жанр: мультфильм, мюзикл, комедия
Продолжительность: 01:18:51
Русские субтитры: нет-Режиссер: Константин Бронзит-Роли озвучивали:
Олег Куликович (Алеша Попович, озвучка), Лия Медведева (Любава, озвучка), Дмитрий Высоцкий (конь Юлий, озвучка), Анатолий Петров (Тихон, озвучка), Наталья Данилова (Бабушка, озвучка), Сергей Маковецкий (Князь Киевский, озвучка), Иван Краско (Святогор, озвучка), Татьяна Иванова (Мать, озвучка), Михаил Черняк (Авторский текст / Ослик Моисей, озвучка), Константин Бронзит (Тугарин, озвучка), Елена Шульман (цыганка, озвучка)-Описание:
В древнем русском городе Ростове родился в поповской семье сын. Назвали его родители Алешей. А когда он вырос и стал богатырем, то совершил такие подвиги, что стал героем русских былин Алешей Поповичем. Только подвиги его начались с конфуза…
Подступила к Ростову тугарская вражеская орда во главе с Тугарином Змеем и потребовала, чтобы жители города выплатили дань. Поповский сын предложил план действий. Народ этот план одобрил и собрал гору золота. Алеша же умудрился собственный план «благополучно» провалить, да с каким треском!
И золото упустил, и полгорода разрушил. После чего поклялся — Тугарина Змея изловить и золото вернуть. Отправился Алеша Попович в путь вместе с дедом Тихоном, который мальчика вырастил и воспитал, а чуть позже компанию им составили говорящий конь Юлий, купленный у цыган, почти 16-летняя красавица Любава, ее бабка и их ослик Моисей…-Доп. информация: Kinopoisk.ru | Sample |-Качество: BDRip-AVC
Контейнер: MKV
Видео кодек: H.264
Аудио кодек: AС3
Видео: H.264, 1160x626 (1.853), ~ 2207 kbps, 23,976 fps, Bits/(Pixel*Frame): 0,127, VBR
Аудио: Русский: 48 kHz, AC3, 3/2 (L,C,R,l,r) + LFE ch, ~ 448.00 kbps

Скриншоты

MediaInfo | x264

x264

x264 [info]: frame I:1061 Avg QP:11.35 size:128138x264 [info]: frame P:31260 Avg QP:15.16 size: 22441x264 [info]: frame B:81001 Avg QP:18.80 size: 5759x264 [info]: consecutive B-frames: 6.0% 4.2% 12.7% 41.7% 14.2% 8.3% 3.3% 3.6% 3.1% 1.4% 1.6%x264 [info]: mb I I16..4: 19.4% 21.4% 59.1%x264 [info]: mb P I16..4: 1.6% 1.7% 3.1% P16..4: 15.6% 10.0% 7.1% 0.0% 0.0% skip:61.0%x264 [info]: mb B I16..4: 0.3% 0.2% 0.4% B16..8: 11.7% 4.7% 2.0% direct: 1.2% skip:79.6% L0:47.6% L1:43.4% BI: 8.9%x264 [info]: 8x8 transform intra:23.4% inter:19.1%x264 [info]: direct mvs spatial:92.2% temporal:7.8%x264 [info]: coded y,uvDC,uvAC intra: 49.3% 62.6% 57.1% inter: 6.4% 8.0% 7.0%x264 [info]: i16 v,h,dc,p: 64% 24% 6% 6%x264 [info]: i8 v,h,dc,ddl,ddr,vr,hd,vl,hu: 16% 21% 23% 5% 6% 6% 7% 6% 10%x264 [info]: i4 v,h,dc,ddl,ddr,vr,hd,vl,hu: 21% 18% 20% 6% 7% 7% 7% 6% 8%x264 [info]: i8c dc,h,v,p: 38% 40% 17% 6%x264 [info]: Weighted P-Frames: Y:1.0% UV:0.6%x264 [info]: ref P L0: 54.3% 6.6% 14.7% 7.2% 5.0% 3.8% 3.0% 1.9% 1.4% 1.1% 0.8% 0.2% 0.0%x264 [info]: ref B L0: 65.4% 17.6% 7.3% 3.4% 2.3% 1.6% 1.2% 0.7% 0.4% 0.2%x264 [info]: ref B L1: 89.7% 10.3%x264 [info]: kb/s:2207.10
GeneralUnique ID : 210431663605640694692386121649577247746 (0x9E4FAA0A39CA87B6A8AB0846BB33C402)Complete name : I:\Bogatiri SD\Alesha.Popovich.I.Tugarin.Zmey.SD.barm.mkvFormat : MatroskaFormat version : Version 2File size : 1.46 GiBDuration : 1h 18mnOverall bit rate : 2 655 KbpsMovie name : Алеша Попович и Тугарин Змей 2004Encoded date : UTC 2012-02-28 18:28:04Writing application : mkvmerge v5.3.0 ('I could have danced') built on Feb 9 2012 10:38:07Writing library : libebml v1.2.3 + libmatroska v1.3.0Attachment : Yes
VideoID : 1Format : AVCFormat/Info : Advanced Video CodecFormat profile : [email protected] settings, CABAC : YesFormat settings, ReFrames : 11 framesCodec ID : V_MPEG4/ISO/AVCDuration : 1h 18mnBit rate : 2 207 KbpsWidth : 1 160 pixelsHeight : 626 pixelsDisplay aspect ratio : 1.853Frame rate : 23.976 fpsColor space : YUVChroma subsampling : 4:2:0Bit depth : 8 bitsScan type : ProgressiveBits/(Pixel*Frame) : 0.127Stream size : 1.19 GiB (81%)Title : Алеша Попович и Тугарин ЗмейWriting library : x264 core 120 r2164 da19765Encoding settings : cabac=1 / ref=11 / deblock=1:-1:-1 / analyse=0x3:0x113 / me=umh / subme=11 / psy=1 / psy_rd=0.70:0.00 / mixed_ref=1 / me_range=32 / chroma_me=1 / trellis=2 / 8x8dct=1 / cqm=0 / deadzone=21,11 / fast_pskip=0 / chroma_qp_offset=-2 / threads=6 / sliced_threads=0 / nr=0 / decimate=0 / interlaced=0 / bluray_compat=0 / constrained_intra=0 / bframes=10 / b_pyramid=2 / b_adapt=2 / b_bias=0 / direct=3 / weightb=1 / open_gop=0 / weightp=2 / keyint=250 / keyint_min=23 / scenecut=40 / intra_refresh=0 / rc_lookahead=60 / rc=2pass / mbtree=1 / bitrate=2207 / ratetol=1.0 / qcomp=0.70 / qpmin=0 / qpmax=69 / qpstep=4 / cplxblur=20.0 / qblur=0.5 / vbv_maxrate=50000 / vbv_bufsize=62500 / nal_hrd=none / ip_ratio=1.10 / aq=2:0.70Language : RussianDefault : YesForced : NoMatrix coefficients : BT.709-5, BT.1361, IEC 61966-2-4 709, SMPTE RP177
AudioID : 2Format : AC-3Format/Info : Audio Coding 3Mode extension : CM (complete main)Codec ID : A_AC3Duration : 1h 18mnBit rate mode : ConstantBit rate : 448 KbpsChannel(s) : 6 channelsChannel positions : Front: L C R, Side: L R, LFESampling rate : 48.0 KHzBit depth : 16 bitsCompression mode : LossyStream size : 253 MiB (17%)Title : 48 kHz, AC3, 3/2 (L,C,R,l,r) + LFE ch, ~ 448.00 kbpsDefault : YesForced : No

-
-Добрыня Никитич и Змей Горыныч-- Год выпуска: 2006
Страна: Россия
Жанр: мультфильм, фэнтези, комедия, приключения
Продолжительность: 01:08:08
Русские субтитры: нет-Режиссер: Илья Максимов-Роли озвучивали:
Валерий Соловьев (Добрыня Никитич, озвучка), Юрий Тарасов (Елисей, озвучка), Сергей Маковецкий (Князь Киевский, озвучка), Андрей Толубеев (Купец Колыван, озвучка), Екатерина Гороховская (Забава Путятична, озвучка), Олег Куликович (Змей Горыныч, озвучка), Анатолий Петров (Бекет - Крымский Хан, озвучка), Наталья Данилова (Баба Яга, озвучка)-Описание:
Пока храбрый воин Добрыня Никитич собирал с тугар дань, в Киеве похитили любимую племянницу князя — Забаву Путятичну. Вопреки воле князя, Добрыня с женихом Забавы Елисеем отправляется на ее поиски. В пути их ждет много приключений…-Доп. информация: Kinopoisk.ru | Sample |-Качество: BDRip-AVC
Контейнер: MKV
Видео кодек: H.264
Аудио кодек: AС3
Видео: H.264, 1160x626 (1.853), ~ 2621 kbps, 23,976 fps, Bits/(Pixel*Frame): 0,150, VBR
Аудио: Русский: 48 kHz, AC3, 3/2 (L,C,R,l,r) + LFE ch, ~ 448.00 kbps

Скриншоты

MediaInfo | x264

x264

x264 [info]: frame I:1077 Avg QP:11.53 size:134618x264 [info]: frame P:27428 Avg QP:15.36 size: 24684x264 [info]: frame B:69517 Avg QP:18.73 size: 7447x264 [info]: consecutive B-frames: 6.0% 4.1% 13.5% 42.8% 15.9% 10.5% 2.0% 1.8% 1.5% 0.6% 0.8% 0.6%x264 [info]: mb I I16..4: 13.6% 27.3% 59.1%x264 [info]: mb P I16..4: 1.9% 2.8% 4.3% P16..4: 14.1% 10.9% 7.6% 0.0% 0.0% skip:58.3%x264 [info]: mb B I16..4: 0.5% 0.4% 0.6% B16..8: 11.9% 6.2% 2.6% direct: 1.6% skip:76.1% L0:47.4% L1:42.9% BI: 9.8%x264 [info]: 8x8 transform intra:29.4% inter:22.0%x264 [info]: direct mvs spatial:93.6% temporal:6.4%x264 [info]: coded y,uvDC,uvAC intra: 54.1% 65.1% 58.0% inter: 8.2% 8.7% 7.1%x264 [info]: i16 v,h,dc,p: 56% 27% 6% 11%x264 [info]: i8 v,h,dc,ddl,ddr,vr,hd,vl,hu: 14% 23% 20% 6% 6% 6% 8% 7% 11%x264 [info]: i4 v,h,dc,ddl,ddr,vr,hd,vl,hu: 21% 17% 18% 7% 8% 7% 7% 7% 9%x264 [info]: i8c dc,h,v,p: 38% 39% 17% 6%x264 [info]: Weighted P-Frames: Y:1.7% UV:1.2%x264 [info]: ref P L0: 53.7% 6.7% 14.9% 7.5% 5.3% 4.0% 3.1% 2.0% 1.6% 1.1% 0.3% 0.0%x264 [info]: ref B L0: 67.1% 16.3% 7.1% 3.4% 2.3% 1.6% 1.2% 0.6% 0.3%x264 [info]: ref B L1: 92.0% 8.0%x264 [info]: kb/s:2621.55
GeneralUnique ID : 215665434541395644021518053800045334832 (0xA23FA6DEACE28ABE92B13F98AEF25130)Complete name : I:\Bogatiri SD\Dobrynya.Nikitich.i.Zmey.Gorynych.SD.barm.mkvFormat : MatroskaFormat version : Version 2File size : 1.46 GiBDuration : 1h 8mnOverall bit rate : 3 072 KbpsMovie name : Добрыня Никитич и Змей Горыныч 2006Encoded date : UTC 2012-03-01 15:09:21Writing application : mkvmerge v5.3.0 ('I could have danced') built on Feb 9 2012 10:38:07Writing library : libebml v1.2.3 + libmatroska v1.3.0Attachment : Yes
VideoID : 1Format : AVCFormat/Info : Advanced Video CodecFormat profile : [email protected] settings, CABAC : YesFormat settings, ReFrames : 10 framesCodec ID : V_MPEG4/ISO/AVCDuration : 1h 8mnBit rate : 2 621 KbpsWidth : 1 160 pixelsHeight : 626 pixelsDisplay aspect ratio : 1.853Frame rate : 23.976 fpsColor space : YUVChroma subsampling : 4:2:0Bit depth : 8 bitsScan type : ProgressiveBits/(Pixel*Frame) : 0.151Stream size : 1.22 GiB (83%)Title : Добрыня Никитич и Змей ГорынычWriting library : x264 core 120 r2164 da19765Encoding settings : cabac=1 / ref=10 / deblock=1:-1:-1 / analyse=0x3:0x113 / me=umh / subme=11 / psy=1 / psy_rd=0.70:0.00 / mixed_ref=1 / me_range=32 / chroma_me=1 / trellis=2 / 8x8dct=1 / cqm=0 / deadzone=21,11 / fast_pskip=0 / chroma_qp_offset=-2 / threads=6 / sliced_threads=0 / nr=0 / decimate=0 / interlaced=0 / bluray_compat=0 / constrained_intra=0 / bframes=11 / b_pyramid=2 / b_adapt=2 / b_bias=0 / direct=3 / weightb=1 / open_gop=0 / weightp=2 / keyint=250 / keyint_min=23 / scenecut=40 / intra_refresh=0 / rc_lookahead=60 / rc=2pass / mbtree=1 / bitrate=2621 / ratetol=1.0 / qcomp=0.70 / qpmin=0 / qpmax=69 / qpstep=4 / cplxblur=20.0 / qblur=0.5 / vbv_maxrate=50000 / vbv_bufsize=62500 / nal_hrd=none / ip_ratio=1.10 / aq=2:0.70Language : RussianDefault : YesForced : NoMatrix coefficients : BT.709-5, BT.1361, IEC 61966-2-4 709, SMPTE RP177
AudioID : 2Format : AC-3Format/Info : Audio Coding 3Mode extension : CM (complete main)Codec ID : A_AC3Duration : 1h 8mnBit rate mode : ConstantBit rate : 448 KbpsChannel(s) : 6 channelsChannel positions : Front: L C R, Side: L R, LFESampling rate : 48.0 KHzBit depth : 16 bitsCompression mode : LossyStream size : 218 MiB (15%)Title : 48 kHz, AC3, 3/2 (L,C,R,l,r) + LFE ch, ~ 448.00 kbpsLanguage : RussianDefault : YesForced : No

-
-Илья Муромец и Соловей Разбойник-- Год выпуска: 2007
Страна: Россия
Жанр: мультфильм, комедия, приключения
Продолжительность: 01:19:31
Русские субтитры: нет-Режиссер: Владимир Торопчин-Роли озвучивали:
(Василевс, Император Византийский, озвучка), Екатерина Гороховская (Алёнушка, озвучка), Валерий Соловьев (Илья Муромец, озвучка), Сергей Маковецкий (Князь Киевский, озвучка), Анатолий Петров (Пройдоха / Погонщик Коня, озвучка), Андрей Толубеев (Соловей-разбойник, озвучка), Олег Куликович (бандит, озвучка), Юрий Тарасов (Помомщник Василевса, озвучка), Наталья Данилова (Мама Ильи / Византийская бабушка, озвучка)-Описание:
Славится земля русская богатырями богатырскими да разбойниками разбойничьими…
А сверху всего князь княжеский сидит, за всем следит и порядок наводит, если нужно. Да только не всегда выходит у князя так, как нужно — правильно.
Вот и сейчас — с богатырём поругался да от Соловья Разбойника урон потерпел немалый: увёл бандит окаянный казну государственную прямо из-под носа!
Что делать князю? А ничего особенного — на то он и князь, чтоб из любой ситуации выход найти! Вот и отправились князь с Ильёй на поиски похищенного, а за ними вслед увязалась корреспондентка летописи «Новая береста».
А дорога непростая выдалась, до самого Царьграда довела, где встретил их Император Византийский, да только незадача вышла — повздорили наши герои с императором этим, и заключил он против Князя Киевского и Земель русских союз с Соловьем Разбойником…-Доп. информация: Kinopoisk.ru | Sample |-Качество: BDRip-AVC
Контейнер: MKV
Видео кодек: H.264
Аудио кодек: AС3
Видео: H.264, 1152x622 (1.852), ~ 2183 kbps, 23,976 fps, Bits/(Pixel*Frame): 0,127, VBR
Аудио: Русский: 48 kHz, AC3, 3/2 (L,C,R,l,r) + LFE ch, ~ 448.00 kbps

Скриншоты

MediaInfo | x264

x264

x264 [info]: frame I:1394 Avg QP:12.76 size:148787x264 [info]: frame P:31688 Avg QP:16.71 size: 20935x264 [info]: frame B:81310 Avg QP:19.89 size: 5303x264 [info]: consecutive B-frames: 5.7% 3.3% 12.4% 49.4% 15.1% 8.4% 1.8% 1.7% 1.4% 0.8%x264 [info]: mb I I16..4: 11.8% 30.0% 58.2%x264 [info]: mb P I16..4: 1.3% 2.0% 2.8% P16..4: 14.5% 10.4% 7.6% 0.0% 0.0% skip:61.4%x264 [info]: mb B I16..4: 0.3% 0.2% 0.3% B16..8: 11.3% 5.0% 2.1% direct: 1.5% skip:79.4% L0:46.6% L1:43.1% BI:10.2%x264 [info]: 8x8 transform intra:30.8% inter:22.6%x264 [info]: direct mvs spatial:94.3% temporal:5.7%x264 [info]: coded y,uvDC,uvAC intra: 59.3% 67.6% 61.4% inter: 7.1% 7.7% 6.3%x264 [info]: i16 v,h,dc,p: 65% 20% 5% 9%x264 [info]: i8 v,h,dc,ddl,ddr,vr,hd,vl,hu: 12% 25% 17% 6% 6% 5% 8% 6% 13%x264 [info]: i4 v,h,dc,ddl,ddr,vr,hd,vl,hu: 18% 19% 19% 7% 8% 7% 8% 7% 9%x264 [info]: i8c dc,h,v,p: 39% 39% 15% 7%x264 [info]: Weighted P-Frames: Y:1.7% UV:1.0%x264 [info]: ref P L0: 52.0% 8.1% 14.9% 7.3% 5.1% 3.9% 3.1% 1.9% 1.5% 1.2% 0.9% 0.2% 0.0%x264 [info]: ref B L0: 67.3% 16.1% 7.0% 3.2% 2.2% 1.5% 1.1% 0.7% 0.5% 0.3%x264 [info]: ref B L1: 91.9% 8.1%x264 [info]: kb/s:2183.13
GeneralUnique ID : 234951703489615993531513269412238056357 (0xB0C20D57F7F5E330BB1AB3390C91DBA5)Complete name : I:\Bogatiri SD\Ilya.Muromets.i.Solovey.Razboynik.SD.barm.mkvFormat : MatroskaFormat version : Version 2File size : 1.46 GiBDuration : 1h 19mnOverall bit rate : 2 634 KbpsMovie name : Илья Муромец и Соловей Разбойник 2007Encoded date : UTC 2012-03-02 17:09:51Writing application : mkvmerge v5.3.0 ('I could have danced') built on Feb 9 2012 10:38:07Writing library : libebml v1.2.3 + libmatroska v1.3.0Attachment : Yes
VideoID : 1Format : AVCFormat/Info : Advanced Video CodecFormat profile : [email protected] settings, CABAC : YesFormat settings, ReFrames : 11 framesCodec ID : V_MPEG4/ISO/AVCDuration : 1h 19mnBit rate : 2 183 KbpsWidth : 1 152 pixelsHeight : 622 pixelsDisplay aspect ratio : 1.852Frame rate : 23.976 fpsColor space : YUVChroma subsampling : 4:2:0Bit depth : 8 bitsScan type : ProgressiveBits/(Pixel*Frame) : 0.127Stream size : 1.18 GiB (81%)Title : Илья Муромец и Соловей РазбойникWriting library : x264 core 120 r2164 da19765Encoding settings : cabac=1 / ref=11 / deblock=1:-1:-1 / analyse=0x3:0x113 / me=umh / subme=11 / psy=1 / psy_rd=0.70:0.00 / mixed_ref=1 / me_range=32 / chroma_me=1 / trellis=2 / 8x8dct=1 / cqm=0 / deadzone=21,11 / fast_pskip=0 / chroma_qp_offset=-2 / threads=6 / sliced_threads=0 / nr=0 / decimate=0 / interlaced=0 / bluray_compat=0 / constrained_intra=0 / bframes=9 / b_pyramid=2 / b_adapt=2 / b_bias=0 / direct=3 / weightb=1 / open_gop=0 / weightp=2 / keyint=250 / keyint_min=23 / scenecut=40 / intra_refresh=0 / rc_lookahead=60 / rc=2pass / mbtree=1 / bitrate=2183 / ratetol=1.0 / qcomp=0.70 / qpmin=0 / qpmax=69 / qpstep=4 / cplxblur=20.0 / qblur=0.5 / vbv_maxrate=50000 / vbv_bufsize=62500 / nal_hrd=none / ip_ratio=1.10 / aq=2:0.70Language : RussianDefault : YesForced : NoMatrix coefficients : BT.709-5, BT.1361, IEC 61966-2-4 709, SMPTE RP177
AudioID : 2Format : AC-3Format/Info : Audio Coding 3Mode extension : CM (complete main)Codec ID : A_AC3Duration : 1h 19mnBit rate mode : ConstantBit rate : 448 KbpsChannel(s) : 6 channelsChannel positions : Front: L C R, Side: L R, LFESampling rate : 48.0 KHzBit depth : 16 bitsCompression mode : LossyStream size : 255 MiB (17%)Title : 48 kHz, AC3, 3/2 (L,C,R,l,r) + LFE ch, ~ 448.00 kbpsLanguage : RussianDefault : YesForced : No

-
-Три богатыря и Шамаханская царица-- Год выпуска: 2010
Страна: Россия
Жанр: мультфильм, фэнтези, комедия, приключения
Продолжительность: 01:16:32
Русские субтитры: нет-Режиссер: Сергей Глезин-Роли озвучивали:
Дмитрий Быковский-Ромашов (Илья Муромец, озвучка), Валерий Соловьев (Добрыня Никитич, озвучка), Олег Куликович (Алеша Попович / Змей Горыныч, озвучка), Сергей Маковецкий (князь Киевский, озвучка), Анна Геллер (Шамаханская царица, озвучка), Дмитрий Высоцкий (конь Юлий, озвучка), Константин Бронзит (ворон, озвучка), Мария Цветкова-Овсянникова (Аленушка, озвучка), Елена Шульман (Настасья, озвучка), Лия Медведева (Любава, озвучка), Игорь Шибанов (советник, озвучка), Анатолий Петров (Тихон / сэнсэй, озвучка)--Описание:
Легендарная Шамаханская царица, которая сводила с ума многих царей и простых смертных, положила свой глаз и на Киевского князя.
Тот заболел любовью странной по ней. Но чтобы доставить в целости и сохранности эту чудо-богиню в Киев-Град, срочно из отпуска вызывают всех троих, уже знакомых нам, богатырей: Алёшу Поповича, Добрыню Никитича и Илью Муромца.
Теперь троица должна решить, как быть дальше? Вроде бы и слухи о царице ходят нелестные, и князя жаль.-Доп. информация: Kinopoisk.ru | Sample |-Качество: BDRip-AVC
Контейнер: MKV
Видео кодек: H.264
Аудио кодек: AС3
Видео: H.264, 1170x658 (1.850), ~ 2284 kbps, 24 fps, Bits/(Pixel*Frame): 0,1236, VBR
Аудио: Русский: 48 kHz, AC3, 3/2 (L,C,R,l,r) + LFE ch, ~ 448.00 kbps

Скриншоты

MediaInfo | x264

x264

x264 [info]: frame I:1076 Avg QP:10.75 size:165864x264 [info]: frame P:31006 Avg QP:14.35 size: 23044x264 [info]: frame B:78127 Avg QP:18.37 size: 5352x264 [info]: consecutive B-frames: 6.4% 3.8% 11.3% 46.8% 13.2% 9.6% 2.8% 1.9% 1.5% 0.8% 1.8%x264 [info]: mb I I16..4: 9.1% 43.2% 47.8%x264 [info]: mb P I16..4: 1.1% 3.1% 2.7% P16..4: 18.0% 12.1% 7.7% 0.0% 0.0% skip:55.2%x264 [info]: mb B I16..4: 0.3% 0.4% 0.4% B16..8: 14.8% 5.7% 1.8% direct: 1.5% skip:75.1% L0:47.4% L1:43.8% BI: 8.8%x264 [info]: 8x8 transform intra:42.3% inter:25.8%x264 [info]: direct mvs spatial:94.7% temporal:5.3%x264 [info]: coded y,uvDC,uvAC intra: 61.3% 68.4% 59.4% inter: 7.2% 8.6% 7.0%x264 [info]: i16 v,h,dc,p: 53% 25% 6% 16%x264 [info]: i8 v,h,dc,ddl,ddr,vr,hd,vl,hu: 19% 19% 19% 6% 6% 6% 7% 7% 11%x264 [info]: i4 v,h,dc,ddl,ddr,vr,hd,vl,hu: 23% 18% 15% 7% 8% 7% 7% 7% 9%x264 [info]: i8c dc,h,v,p: 36% 38% 18% 7%x264 [info]: Weighted P-Frames: Y:1.9% UV:1.1%x264 [info]: ref P L0: 54.7% 9.3% 14.2% 6.6% 4.6% 3.5% 2.8% 1.7% 1.3% 1.0% 0.2% 0.0%x264 [info]: ref B L0: 67.6% 17.7% 7.0% 3.0% 1.9% 1.3% 0.9% 0.4% 0.2%x264 [info]: ref B L1: 91.1% 8.9%x264 [info]: kb/s:2284.14
GeneralUnique ID : 247673579841581447056499823841831147736 (0xBA5432464A608C64A84764DC72DDD8D8)Complete name : I:\Bogatiri SD\Tri.Bogatyrya.i.Shamakhanskaya.Tsaritsa.SD.barm.mkvFormat : MatroskaFormat version : Version 2File size : 1.46 GiBDuration : 1h 16mnOverall bit rate : 2 735 KbpsMovie name : Три богатыря и Шамаханская царица 2010Encoded date : UTC 2012-03-05 14:44:34Writing application : mkvmerge v5.3.0 ('I could have danced') built on Feb 9 2012 10:38:07Writing library : libebml v1.2.3 + libmatroska v1.3.0Attachment : Yes
VideoID : 1Format : AVCFormat/Info : Advanced Video CodecFormat profile : [email protected] settings, CABAC : YesFormat settings, ReFrames : 10 framesCodec ID : V_MPEG4/ISO/AVCDuration : 1h 16mnBit rate : 2 284 KbpsWidth : 1 170 pixelsHeight : 658 pixelsDisplay aspect ratio : 16:9Frame rate : 24.000 fpsColor space : YUVChroma subsampling : 4:2:0Bit depth : 8 bitsScan type : ProgressiveBits/(Pixel*Frame) : 0.124Stream size : 1.19 GiB (82%)Title : Три богатыря и Шамаханская царицаWriting library : x264 core 120 r2164 da19765Encoding settings : cabac=1 / ref=10 / deblock=1:-1:-1 / analyse=0x3:0x113 / me=umh / subme=11 / psy=1 / psy_rd=0.70:0.00 / mixed_ref=1 / me_range=32 / chroma_me=1 / trellis=2 / 8x8dct=1 / cqm=0 / deadzone=21,11 / fast_pskip=0 / chroma_qp_offset=-2 / threads=6 / sliced_threads=0 / nr=0 / decimate=0 / interlaced=0 / bluray_compat=0 / constrained_intra=0 / bframes=10 / b_pyramid=2 / b_adapt=2 / b_bias=0 / direct=3 / weightb=1 / open_gop=0 / weightp=2 / keyint=250 / keyint_min=24 / scenecut=40 / intra_refresh=0 / rc_lookahead=60 / rc=2pass / mbtree=1 / bitrate=2284 / ratetol=1.0 / qcomp=0.70 / qpmin=0 / qpmax=69 / qpstep=4 / cplxblur=20.0 / qblur=0.5 / vbv_maxrate=50000 / vbv_bufsize=62500 / nal_hrd=none / ip_ratio=1.10 / aq=2:0.70Language : RussianDefault : YesForced : NoMatrix coefficients : BT.709-5, BT.1361, IEC 61966-2-4 709, SMPTE RP177
AudioID : 2Format : AC-3Format/Info : Audio Coding 3Mode extension : CM (complete main)Codec ID : A_AC3Duration : 1h 16mnBit rate mode : ConstantBit rate : 448 KbpsChannel(s) : 6 channelsChannel positions : Front: L C R, Side: L R, LFESampling rate : 48.0 KHzBit depth : 16 bitsCompression mode : LossyStream size : 245 MiB (16%)Title : 48 kHz, AC3, 3/2 (L,C,R,l,r) + LFE ch, ~ 448.00 kbpsLanguage : RussianDefault : YesForced : No

-
-Иван Царевич и Серый Волк-- Год выпуска: 2011
Страна: Россия (Мельница, СТВ)
Жанр: мультфильм, комедия, приключения, семейный
Продолжительность: 01:25:58
Русские субтитры: нет
Навигация по главам: есть-Режиссер: Владимир Торопчин-Роли озвучивали: Никита Ефремов (Иван, озвучка), Иван Охлобыстин (царь, озвучка),Артур Смольянинов (волк, озвучка), Лия Ахеджакова (Баба Яга, озвучка),Кристина Асмус (белка, озвучка), Виктор Сухоруков (первый министр, озвучка),Сергей Гармаш (Змей Горыныч, озвучка), Михаил Боярский (ученый кот, озвучка),Татьяна Бунина (Василиса, озвучка), Сергей Русскин (Кощей Бессмертный, озвучка),Елена Шульман (русалка, озвучка), Константин Бронзит (царь-император, озвучка)-Описание: Увлекательная история от создателей богатырской трилогии, в которой героев русских народных сказок ждут новые приключения, опасности и забавные ситуации.-Доп. информация: Kinopoisk.ru | Sample-Качество: BDRip-AVC
Контейнер: MKV
Видео кодек: H.264
Аудио кодек: AС3
Видео: H.264, 1152x622, 23.976 fps, ~1984 kbps, Bits/(Pixel*Frame):0.115, VBR
Аудио: Русский: 48 kHz, AC3, 3/2 (L,C,R,l,r) + LFE ch, ~ 448.00 kbps

Скриншоты

- -Rip vs Sourse -Rip vs Sourse

MediaInfo | x264

x264

x264 [info]: frame I:1462 Avg QP: 9.36 size:167435x264 [info]: frame P:34267 Avg QP:13.57 size: 18772x264 [info]: frame B:87943 Avg QP:17.72 size: 4449x264 [info]: consecutive B-frames: 6.0% 4.4% 12.9% 42.9% 15.0% 7.8% 5.3% 2.5% 2.1% 1.1%x264 [info]: mb I I16..4: 9.4% 43.5% 47.1%x264 [info]: mb P I16..4: 0.9% 2.0% 1.6% P16..4: 16.1% 7.0% 8.0% 0.0% 0.0% skip:64.4%x264 [info]: mb B I16..4: 0.1% 0.1% 0.2% B16..8: 10.9% 3.2% 2.0% direct: 1.3% skip:82.2% L0:47.0% L1:44.0% BI: 9.0%x264 [info]: 8x8 transform intra:42.4% inter:21.6%x264 [info]: direct mvs spatial:93.0% temporal:7.0%x264 [info]: coded y,uvDC,uvAC intra: 72.4% 75.5% 70.5% inter: 6.3% 7.2% 6.2%x264 [info]: i16 v,h,dc,p: 64% 19% 7% 10%x264 [info]: i8 v,h,dc,ddl,ddr,vr,hd,vl,hu: 19% 23% 16% 5% 6% 6% 7% 7% 11%x264 [info]: i4 v,h,dc,ddl,ddr,vr,hd,vl,hu: 18% 15% 12% 8% 10% 9% 9% 9% 10%x264 [info]: i8c dc,h,v,p: 51% 25% 17% 7%x264 [info]: Weighted P-Frames: Y:0.8% UV:0.6%x264 [info]: ref P L0: 60.8% 8.2% 12.2% 5.8% 3.9% 2.9% 2.3% 1.4% 1.1% 0.8% 0.6% 0.1% 0.0%x264 [info]: ref B L0: 68.7% 16.8% 6.8% 2.8% 1.8% 1.2% 0.9% 0.5% 0.3% 0.2%x264 [info]: ref B L1: 92.1% 7.9%x264 [info]: kb/s:1984.16
Unique ID : 205705480815868880898546398870194411952 (0x9AC16F3CE2A18104A85AB26D9264D9B0)Complete name : I:\Ivan.Carevich.I.Serij.Volk.barm.mkvFormat : MatroskaFormat version : Version 2File size : 1.46 GiBDuration : 1h 25mnOverall bit rate : 2 434 KbpsMovie name : Иван Царевич и Серый ВолкEncoded date : UTC 2012-02-19 12:24:38Writing application : mkvmerge v5.3.0 ('I could have danced') built on Feb 9 2012 10:38:07Writing library : libebml v1.2.3 + libmatroska v1.3.0Attachment : Yes
VideoID : 1Format : AVCFormat/Info : Advanced Video CodecFormat profile : [email protected] settings, CABAC : YesFormat settings, ReFrames : 11 framesCodec ID : V_MPEG4/ISO/AVCDuration : 1h 25mnBit rate : 1 984 KbpsWidth : 1 152 pixelsHeight : 622 pixelsDisplay aspect ratio : 1.852Frame rate : 23.976 fpsColor space : YUVChroma subsampling : 4:2:0Bit depth : 8 bitsScan type : ProgressiveBits/(Pixel*Frame) : 0.115Stream size : 1.16 GiB (80%)Title : Иван Царевич и Серый ВолкWriting library : x264 core 120 r2164 da19765Encoding settings : cabac=1 / ref=11 / deblock=1:-1:-1 / analyse=0x3:0x113 / me=umh / subme=10 / psy=1 / psy_rd=0.80:0.00 / mixed_ref=1 / me_range=32 / chroma_me=1 / trellis=2 / 8x8dct=1 / cqm=0 / deadzone=21,11 / fast_pskip=0 / chroma_qp_offset=-2 / threads=6 / sliced_threads=0 / nr=0 / decimate=0 / interlaced=0 / bluray_compat=0 / constrained_intra=0 / bframes=9 / b_pyramid=2 / b_adapt=2 / b_bias=0 / direct=3 / weightb=1 / open_gop=0 / weightp=2 / keyint=250 / keyint_min=23 / scenecut=40 / intra_refresh=0 / rc_lookahead=60 / rc=2pass / mbtree=1 / bitrate=1984 / ratetol=1.0 / qcomp=0.70 / qpmin=0 / qpmax=69 / qpstep=4 / cplxblur=20.0 / qblur=0.5 / vbv_maxrate=50000 / vbv_bufsize=62500 / nal_hrd=none / ip_ratio=1.10 / aq=2:0.70Language : RussianDefault : YesForced : NoMatrix coefficients : BT.709-5, BT.1361, IEC 61966-2-4 709, SMPTE RP177
AudioID : 2Format : AC-3Format/Info : Audio Coding 3Mode extension : CM (complete main)Codec ID : A_AC3Duration : 1h 25mnBit rate mode : ConstantBit rate : 448 KbpsChannel(s) : 6 channelsChannel positions : Front: L C R, Side: L R, LFESampling rate : 48.0 KHzBit depth : 16 bitsCompression mode : LossyStream size : 275 MiB (18%)Title : 48 kHz, AC3, 3/2 (L,C,R,l,r) + LFE ch, ~ 448.00 kbpsLanguage : RussianDefault : YesForced : No
Menu00:00:00.000 : en:Chapter 100:08:19.916 : en:Chapter 200:15:17.041 : en:Chapter 300:22:17.419 : en:Chapter 400:29:20.925 : en:Chapter 500:36:09.500 : en:Chapter 600:45:12.918 : en:Chapter 700:53:30.790 : en:Chapter 801:00:45.433 : en:Chapter 901:06:53.134 : en:Chapter 1001:14:10.988 : en:Chapter 1101:21:09.656 : en:Chapter 12

[Цитировать]



Показать сообщения:    

Текущее время: 05-Дек 17:38

Часовой пояс: UTC + 3


Вы не можете начинать темы
Вы не можете отвечать на сообщения
Вы не можете редактировать свои сообщения
Вы не можете удалять свои сообщения
Вы не можете голосовать в опросах
Вы не можете прикреплять файлы к сообщениям
Вы не можете скачивать файлы

!ВНИМАНИЕ!
Сайт не предоставляет электронные версии произведений, а занимается лишь коллекционированием и каталогизацией ссылок, присылаемых и публикуемых на форуме нашими читателями. Если вы являетесь правообладателем какого-либо представленного материала и не желаете, чтобы ссылка на него находилась в нашем каталоге, свяжитесь с нами, и мы незамедлительно удалим ее. Файлы для обмена на трекере предоставлены пользователями сайта, и администрация не несет ответственности за их содержание. Просьба не заливать файлы, защищенные авторскими правами, а также файлы нелегального содержания!